Welcome Guest ( Log In | Register )

 
Reply to this topicStart new topic
> Caustic Thought - Cleaned Tape [demo] (1993), Thrash Metal
post Feb 11 2019, 10:07:30
Post #1

Подвал
**************
Group: Металариец
Posts: 13,548
Releases: 7681
From: Far East (Khabarovsk)
On Forums: 10 years 5 months
Thanks: 73693 time(s)
Russian Federation


(IMG:http://metalarea.org/images/audiocovers/2019_Feb/acov_tid317422.png)

*Artist: Caustic Thought
*Album: Cleaned Tape [demo]
*Year: 1993
*Genre: Thrash Metal
*Country: Canada (IMG:http://metalarea.org/forum/style_images/flags/Canada.png)
*Format: mp3@CBR192kbps
*Size: 35MB

Tracklist:
1. Needle Burn 03:59
2. Dumb Waiter 03:51
3. Poison Mind 05:28
4. Under Your Skin 02:59
5. Planet Claire (B52 cover) 03:16
6. Sore 02:48
7. Dead Currents 04:06
******************************
Total playing time: 26:27

Extended info
Trax 6, 7 are bonuses from prior demo.


Technical info
(IMG:http://metalarea.org/images/spectrogram/2019_Feb/1d141fabd68e64aedc89241f582c9485.png)
Input File: 01-Needle Burn.mp3
Channels : 2
Sample Rate : 44100
Precision : 16-bit
Duration : 00:03:58.22 = 10505634 samples = 17866.7 CDDA sectors
File Size : 5.72M
Bit Rate : 192k
Sample Encoding: MPEG audio (layer I, II or III)
Comments :
Title=Needle Burn
Artist=Caustic Thought
Album=Cleaned Tape Demo
Tracknumber=01
Year=1993
Genre=Thrash Metal



Register


Go to the top of the page
  Insert nick Quick quote
+Quote Post

Reply to this topicStart new topic
2 User(s) are reading this topic (2 Guests and 0 Anonymous Users)
0 Members:

 



- Lo-Fi Version Support form
Copyrights and abuse reports form
Time is now: 20th July 2019 - 06:32:13