Welcome Guest ( Log In | Register )

> Absorb - Dealing With Pain (2010), Old School Death Metal
post Feb 11 2019, 10:17:04
Post #1

Join my religion, or die
**************
Group: Металариец
Posts: 10,338
Releases: 1435
From: Питера
On Forums: 9 years 10 months
Thanks: 18215 time(s)
Russian Federation


(IMG:http://metalarea.org/images/audiocovers/2019_Feb/acov_tid317423_thumb.jpg)

*Artist: Absorb
*Album: Dealing With Pain
*Year: 2010
*Genre: Old School Death Metal
*Country: Germany (IMG:http://metalarea.org/forum/style_images/flags/Germany.png)
*Format: mp3@CBR320kbps
*Size: 72MB

Tracklist:
01. Dealing with Pain 02:31
02. Last Regain 03:19
03. Hang 02:34
04. The Call 04:39
05. Awful Cry 01:52
06. Anticipate Cure 03:17
07. Bite Down Hard 03:35
08. None of the Above 02:55
09. Out of Control 02:47
10. Inhuman Aim 02:42
11. Seperable Twins 02:33
******************************
Total playing time: 32:44

Extended info
После многолетних усилий наконец то удалось найти этот неуловимый альбом.
Первый альбом группы, играющей с 80х годов.
Отличный олдскул, впрочем следующая их ЕРишка - ещё круче!


Technical info
(IMG:http://metalarea.org/images/spectrogram/2019_Feb/e02d6fa8bda64745e91085da4cede1ad.png)
Input File: 02 Last Regain.mp3
Channels : 2
Sample Rate : 44100
Precision : 16-bit
Duration : 00:03:18.86 = 8769638 samples = 14914.4 CDDA sectors
File Size : 8.07M
Bit Rate : 325k
Sample Encoding: MPEG audio (layer I, II or III)
Comments :
Title=Last Regain
Artist=Absorb
Album=2010 Dealing With Pain
Tracknumber=02/11
Year=2010
Genre=Death Metal



Register


Go to the top of the page
  Insert nick Quick quote
+Quote Post
 
Start new topic
Replies (1 - 1)
post Feb 11 2019, 15:38:48
Post #2

Join my religion, or die
**************
Group: Металариец
Posts: 10,338
Releases: 1435
From: Питера
On Forums: 9 years 10 months
Thanks: 18215 time(s)
Russian Federation


За РИП пасибо Диме "church" с дружественного ресурса.
Благодаря его усилиям, при небольшой моей помощи, удалось раздобыть этот альбом у музыкантов Absorb

Yandex
Register


Thanks:
Go to the top of the page
  Insert nick Quick quote
+Quote Post

Reply to this topicStart new topic
1 User(s) are reading this topic (1 Guests and 0 Anonymous Users)
0 Members:

 



- Lo-Fi Version Support form
Copyrights and abuse reports form
Time is now: 19th August 2019 - 17:58:31