Welcome Guest ( Log In | Register )

 
Reply to this topicStart new topic
> Cardiac Arrest - Ivil [demo] (1987), Thrash Metal (D)
post Feb 11 2019, 10:26:09
Post #1

Подвал
**************
Group: Металариец
Posts: 13,548
Releases: 7681
From: Far East (Khabarovsk)
On Forums: 10 years 5 months
Thanks: 73693 time(s)
Russian Federation


(IMG:http://metalarea.org/images/audiocovers/nocover.gif)

*Artist: Cardiac Arrest
*Album: Ivil [demo]
*Year: 1987
*Genre: Thrash Metal
*Country: Sweden (IMG:http://metalarea.org/forum/style_images/flags/Sweden.png)
*Format: mp3@CBR128kbps (IMG:http://metalarea.org/images/bit_low.gif)
*Size: 17MB

Tracklist:
1. It's For The Cause 06:04
2. Walk Through The Fire 03:14
3. Fatal Error 06:17
4. Let Us Pray 03:29
******************************
Total playing time: 19:04

Extended info
Band from Uppsala including F.K.U., Lost Souls members.


Technical info
(IMG:http://metalarea.org/images/spectrogram/2019_Feb/cbc6eaa7d6cbb54b00187f67b6f0c277.png)
Input File: 01-Its For the Cause.MP3
Channels : 2
Sample Rate : 44100
Precision : 16-bit
Duration : 00:06:04.94 = 16093722 samples = 27370.3 CDDA sectors
File Size : 5.84M
Bit Rate : 128k
Sample Encoding: MPEG audio (layer I, II or III)
Comments :
Title=Its For the Cause
Artist=Cardiac Arrest (Swe)
Album=Ivil demo
Tracknumber=01
Year=1987
Genre=Thrash Metal



Register


Go to the top of the page
  Insert nick Quick quote
+Quote Post

Reply to this topicStart new topic
2 User(s) are reading this topic (2 Guests and 0 Anonymous Users)
0 Members:

 



- Lo-Fi Version Support form
Copyrights and abuse reports form
Time is now: 20th July 2019 - 06:41:07