Welcome Guest ( Log In | Register )

> Absorb - Vision Apart [ep] (2015), Old School Death Metal
post Feb 11 2019, 10:26:11
Post #1

Join my religion, or die
**************
Group: Металариец
Posts: 10,389
Releases: 1444
From: Питера
On Forums: 10 years 3 weeks
Thanks: 18421 time(s)
Russian Federation


(IMG:http://metalarea.org/images/audiocovers/2019_Feb/acov_tid317425_thumb.jpg)

*Artist: Absorb
*Album: Vision Apart [ep]
*Year: 2015
*Genre: Old School Death Metal
*Country: Germany (IMG:http://metalarea.org/forum/style_images/flags/Germany.png)
*Format: mp3@CBR320kbps
*Size: 39MB

Tracklist:
01. Perfect Whore
02. Los Muertos De Hambre
03. Undead
04. World StopsTurning
******************************
Total playing time: 16:57

Extended info
Шикарная ЕРишка!!!
Два раза делал рип - получаются такие графики...


Technical info
(IMG:http://metalarea.org/images/spectrogram/2019_Feb/902c1425158521aa639407170200fa6a.png)
Input File: 04 World Stops Turning.mp3
Channels : 2
Sample Rate : 48000
Precision : 16-bit
Duration : 00:04:32.48 = 13078800 samples ~ 20435.6 CDDA sectors
File Size : 11.0M
Bit Rate : 323k
Sample Encoding: MPEG audio (layer I, II or III)
Comments :
Title=World Stops Turning
Artist=Absorb
Album=2015 Vision Apart
Tracknumber=04
Year=2015
Genre=Death Metal



Register


Go to the top of the page
  Insert nick Quick quote
+Quote Post
 
Start new topic
Replies (1 - 2)
post Feb 11 2019, 19:05:40
Post #2

Маньяк
**********
Group: Металариец
Posts: 1,096
Releases: 0
On Forums: 8 years 5 months
Thanks: 485 time(s)
Unknown


Mirror please? sampo seems like a very restrictive host.
Go to the top of the page
  Insert nick Quick quote
+Quote Post
post Feb 11 2019, 20:55:11
Post #3

Join my religion, or die
**************
Group: Металариец
Posts: 10,389
Releases: 1444
From: Питера
On Forums: 10 years 3 weeks
Thanks: 18421 time(s)
Russian Federation


Yandex
Register


Thanks:
Go to the top of the page
  Insert nick Quick quote
+Quote Post

Reply to this topicStart new topic
1 User(s) are reading this topic (1 Guests and 0 Anonymous Users)
0 Members:

 



- Lo-Fi Version Support form
Copyrights and abuse reports form
Time is now: 18th October 2019 - 12:56:27