Welcome Guest ( Log In | Register )

 
Reply to this topicStart new topic
> Top Sekret - Piggy Op (2018), Goregrind
post Feb 11 2019, 10:36:19
Post #1

Девять Литров
*********
Group: Металариец
Posts: 963
Releases: 351
From: Саранск
On Forums: 8 years 5 months
Thanks: 2818 time(s)
Russian Federation


(IMG:https://metalarea.org/images/audiocovers/2019_Feb/acov_tid317426_thumb.jpg)

*Artist: Top Sekret
*Album: Piggy Op
*Year: 2018
*Genre: Goregrind
*Country: Czech Republic (IMG:https://metalarea.org/forum/style_images/flags/Czech%20Republic.png)
*Format: mp3@CBR256kbps
*Size: 37MB

Tracklist:
1. Onany boy
2. Foot Fetish
3. Piggy Op
4. Do vany sral
5. Anulu
6. Morbinudus
7. Mister Hoven
8. Opići
9. Ćoko voko
10. Dildo
11. Zanet nadvarlat
12. Ześrane Monterky
13. Somar
14. Vymerdej si prdel hovnem
******************************
Total playing time: 20:13



Technical info
(IMG:https://metalarea.org/images/spectrogram/2019_Feb/4962656d06e3112ab2db72f6b9e06564.png)
Input File: 06. Moribundus.mp3
Channels : 2
Sample Rate : 44100
Precision : 16-bit
Duration : 00:01:32.03 = 4058655 samples = 6902.47 CDDA sectors
File Size : 3.00M
Bit Rate : 261k
Sample Encoding: MPEG audio (layer I, II or III)
Comments :
Title=Moribundus
Artist=Top Sekret
Album=Piggy Op
Tracknumber=6/14
Year=2018
Genre=Death Metal, Goregrind



Register


Go to the top of the page
  Insert nick Quick quote
+Quote Post

Reply to this topicStart new topic
1 User(s) are reading this topic (1 Guests and 0 Anonymous Users)
0 Members:

 



- Lo-Fi Version Support form
Copyrights and abuse reports form
Time is now: 18th October 2019 - 12:05:37