Welcome Guest ( Log In | Register )

 
Reply to this topicStart new topic
> Ceremony - Demo #2 [demo] (1992), Death/Thrash Metal (D11)
post Feb 11 2019, 11:34:51
Post #1

Подвал
**************
Group: Металариец
Posts: 13,548
Releases: 7681
From: Far East (Khabarovsk)
On Forums: 10 years 5 months
Thanks: 73693 time(s)
Russian Federation


(IMG:http://metalarea.org/images/audiocovers/2019_Feb/acov_tid317427_thumb.jpg)

*Artist: Ceremony
*Album: Demo #2 [demo]
*Year: 1992
*Genre: Death/Thrash Metal
*Country: United States (IMG:http://metalarea.org/forum/style_images/flags/United%20States.png)
*Format: mp3@CBR192kbps
*Size: 27MB

Tracklist:
1. The Invocation 05:00
2. Requiem 05:12
3. Cause And Effect 03:43
4. Depth Of Misery 05:45
5. Frugnutz / Fart Song 00:41
******************************
Total playing time: 20:21

Extended info
Band from Cincinnati, Ohio.
Re-recording of a lot of their first demo material, as well as 1 new song.
Lyrics on tracks 1, 3 and 4 by Aaron Thomas (previous singer).


Technical info
(IMG:http://metalarea.org/images/spectrogram/2019_Feb/5a743f021b7e41038196a53b10c46647.png)
Input File: 02-Requiem.mp3
Channels : 2
Sample Rate : 44100
Precision : 16-bit
Duration : 00:05:12.99 = 13802727 samples = 23474 CDDA sectors
File Size : 7.51M
Bit Rate : 192k
Sample Encoding: MPEG audio (layer I, II or III)
Comments :
Title=Requiem
Artist=Ceremony (US, OH)
Album=Demo #2
Tracknumber=02
Year=1992
Genre=Death Metal



Register


Go to the top of the page
  Insert nick Quick quote
+Quote Post

Reply to this topicStart new topic
2 User(s) are reading this topic (2 Guests and 0 Anonymous Users)
0 Members:

 



- Lo-Fi Version Support form
Copyrights and abuse reports form
Time is now: 20th July 2019 - 06:11:43