Welcome Guest ( Log In | Register )

> Catacomb Voices - Catacomb Voices [demo] (2019), Black Metal
post Feb 11 2019, 11:43:24
Post #1

Мегаманьяк
***********
Group: Металариец
Posts: 1,725
Releases: 1365
From: Prešov
On Forums: 5 years 3 months
Thanks: 32856 time(s)
Slovakia


(IMG:http://metalarea.org/images/audiocovers/2019_Feb/acov_tid317428_thumb.jpg)

*Artist: Catacomb Voices
*Album: Catacomb Voices [demo]
*Year: 2019
*Genre: Black Metal
*Country: Brazil (IMG:http://metalarea.org/forum/style_images/flags/Brazil.png)
*Format: mp3@VBR245kbps
*Size: 46MB

Tracklist:
1. Untitled
2. Untitled
3. Untitled
4. Untitled
5. Untitled
6. Untitled
7. Untitled
******************************
Total playing time: 24:10

Extended info
Klaxon Records - KLX-25
Tape-rip by Zero


Technical info
(IMG:http://metalarea.org/images/spectrogram/2019_Feb/8705a6b3337a30254fd3322ad48082d6.png)
Input File: 02. Untitled.mp3
Channels : 2
Sample Rate : 44100
Precision : 16-bit
Duration : 00:03:46.61 = 9993589 samples = 16995.9 CDDA sectors
File Size : 7.46M
Bit Rate : 263k
Sample Encoding: MPEG audio (layer I, II or III)
Comments :
Title=Untitled
Artist=Catacomb Voices
Album=Catacomb Voices
Tracknumber=02/07
Year=2019
Genre=Black Metal



Register


Go to the top of the page
  Insert nick Quick quote
+Quote Post
 
Start new topic
Replies (1 - 3)
post Feb 12 2019, 09:36:11
Post #2

Forever Underground
**************
Group: Металариец
Posts: 5,828
Releases: 0
On Forums: 4 years 3 months
Thanks: 6264 time(s)
Unknown


I like the name of this band! (IMG:style_emoticons/default/25.gif)
(IMG:style_emoticons/default/true_black.gif)
Go to the top of the page
  Insert nick Quick quote
+Quote Post
post Feb 12 2019, 14:11:11
Post #3

Detective Godzilla
Group Icon
Group: Moderation team
Posts: 3,060
Releases: 258
On Forums: 8 years 5 months
Thanks: 8816 time(s)
Russian Federation


(IMG:style_emoticons/default/true_black.gif) Возвращение Klaxon Records.
Go to the top of the page
  Insert nick Quick quote
+Quote Post
post Feb 12 2019, 14:13:09
Post #4

а ты попал в даунтаун
**********
Group: Металариец
Posts: 1,226
Releases: 48
From: Москва
On Forums: 10 years 2 months
Thanks: 3316 time(s)
Russian Federation


Это который post-Sovereign?
Go to the top of the page
  Insert nick Quick quote
+Quote Post

Reply to this topicStart new topic
2 User(s) are reading this topic (2 Guests and 0 Anonymous Users)
0 Members:

 



- Lo-Fi Version Support form
Copyrights and abuse reports form
Time is now: 18th July 2019 - 12:47:36