Welcome Guest ( Log In | Register )

> Zeugen Der Leere - Erinnerungen An Theia (2019), Atmospheric Black Metal (D5)
post Feb 11 2019, 12:24:28
Post #1

Аннигилятор пивА
Group Icon
Group: V.I.P
Posts: 52,356
Releases: 16556
From: Koenigsberg - TILZIT
On Forums: 13 years 1 month
Thanks: 361409 time(s)
Russian Federation


(IMG:https://metalarea.org/images/audiocovers/2019_Feb/acov_tid317429_thumb.jpg)

*Artist: Zeugen Der Leere
*Album: Erinnerungen An Theia
*Year: 2019
*Genre: Atmospheric Black Metal
*Country: Germany (IMG:https://metalarea.org/forum/style_images/flags/Germany.png)
*Format: mp3@CBR320kbps
*Size: 126MB

Tracklist:
1. Äther 12:10
2. Flammentraum 13:18
3. Erdenreich 16:43
4. Fluten 12:38
******************************
Total playing time: 54:49




Extended info
Holger - Guitars, Bass (2014-present) See also: ex-Ruin of Remembrance
Denny - Vocals (2014-present) See also: ex-Ruin of Remembrance, Denny Purge
Maximilian - Synt
Sebastian - Drums


Technical info
(IMG:https://metalarea.org/images/spectrogram/2019_Feb/e1a8c5882ea9e433c2466eab8a3eb6c9.png)
Input File: Zeugen der Leere - Erinnerungen an Theia - 01 Äther.mp3
Channels : 2
Sample Rate : 44100
Precision : 16-bit
Duration : 00:12:10.89 = 32232425 samples = 54817 CDDA sectors
File Size : 29.4M
Bit Rate : 321k
Sample Encoding: MPEG audio (layer I, II or III)
Comments :
Title=Äther
Artist=Zeugen der Leere
Album=Erinnerungen an Theia
Tracknumber=1
Year=2019



Register


Go to the top of the page
  Insert nick Quick quote
+Quote Post
 
Start new topic
Replies (1 - 4)
post Feb 11 2019, 16:22:21
Post #2

Аннигилятор пивА
Group Icon
Group: V.I.P
Posts: 52,356
Releases: 16556
From: Koenigsberg - TILZIT
On Forums: 13 years 1 month
Thanks: 361409 time(s)
Russian Federation


mirror
Register



Go to the top of the page
  Insert nick Quick quote
+Quote Post
post Feb 12 2019, 14:14:20
Post #3

Правь статус, ####!111
**************
Group: Металариец
Posts: 2,499
Releases: 3
From: Dnipro
On Forums: 11 years 4 days
Thanks: 678 time(s)
Ukraine


А ведь "Seelenwanderer" (2104) у них был очень не плохой.
Go to the top of the page
  Insert nick Quick quote
+Quote Post
post Feb 12 2019, 15:55:33
Post #4

Group: Подсевший
Posts: 45
Releases: 0
On Forums: 13 years 8 months
Thanks: 11 time(s)
Russian Federation


ЦИТАТА(isvili @ Feb 12 2019, 13:14:20) *
А ведь "Seelenwanderer" (2104) у них был очень не плохой.


Как там в 2104, потомки?


Thanks:
(1) stub888,
Go to the top of the page
  Insert nick Quick quote
+Quote Post
post Apr 11 2019, 05:14:27
Post #5

i listen to black metal
**************
Group: Металариец
Posts: 2,365
Releases: 128
From: Москва-Лианозово
On Forums: 12 years 6 months
Thanks: 2051 time(s)
Russian Federation


ЦИТАТА(isvili @ Feb 12 2019, 16:14:20) *
А ведь "Seelenwanderer" (2104) у них был очень не плохой.

отличным!!!!! (IMG:style_emoticons/default/pray.gif)

ааааа я ЕР 2019 пропустил...бегу качать!
Go to the top of the page
  Insert nick Quick quote
+Quote Post

Reply to this topicStart new topic
2 User(s) are reading this topic (2 Guests and 0 Anonymous Users)
0 Members:

 



- Lo-Fi Version Support form
Copyrights and abuse reports form
Time is now: 18th July 2019 - 12:11:40