Welcome Guest ( Log In | Register )

 
Reply to this topicStart new topic
> Chaos And Technocracy - Abstract Reflections [single] (1994), Progressive Heavy/Thrash Metal
post Feb 11 2019, 12:35:26
Post #1

Подвал
**************
Group: Металариец
Posts: 13,279
Releases: 7497
From: Far East (Khabarovsk)
On Forums: 10 years 2 months
Thanks: 71355 time(s)
Russian Federation


(IMG:http://metalarea.org/images/audiocovers/2019_Feb/acov_tid317431_thumb.jpeg)

*Artist: Chaos And Technocracy
*Album: Abstract Reflections [single]
*Year: 1994
*Genre: Progressive Heavy/Thrash Metal
*Country: Italy (IMG:http://metalarea.org/forum/style_images/flags/Italy.png)
*Format: mp3@CBR192kbps
*Size: 23MB

Tracklist:
1. Intro 02:13
2. Abstract Reflections 04:13
3. Programmed By Society 03:14
4. Path Of Life 04:05
5. Abstract Reflections (Live In Firenze) 03:34
******************************
Total playing time: 17:19

Extended info
Recorded and mixed at acqualuce in July/August 1993.
Track 5-th is a bonus.


Technical info
(IMG:http://metalarea.org/images/spectrogram/2019_Feb/e4d9d41c34fc6a340509bac19841ed79.png)
Input File: 02-Abstract Reflections.mp3
Channels : 2
Sample Rate : 44100
Precision : 16-bit
Duration : 00:04:13.55 = 11181511 samples = 19016.2 CDDA sectors
File Size : 6.08M
Bit Rate : 192k
Sample Encoding: MPEG audio (layer I, II or III)
Comments :
Title=Abstract Reflections
Artist=Chaos And Technocracy (Ita)
Album=Abstract Reflections (EP)
Tracknumber=02
Year=1994
Genre=Metal



Register


Go to the top of the page
  Insert nick Quick quote
+Quote Post

Reply to this topicStart new topic
1 User(s) are reading this topic (1 Guests and 0 Anonymous Users)
0 Members:

 



- Lo-Fi Version Support form
Copyrights and abuse reports form
Time is now: 24th April 2019 - 01:42:42