Welcome Guest ( Log In | Register )

> Progeny - We Will Rise Again [single] (2019), Occult/Stoner Doom Metal
post Feb 11 2019, 13:19:55
Post #1

Правь статус, ####!111
**************
Group: Металариец
Posts: 42,322
Releases: 638
On Forums: 10 years 2 months
Thanks: 33165 time(s)
Russian Federation


(IMG:http://metalarea.org/images/audiocovers/2019_Feb/acov_tid317432_thumb.jpg)

*Artist: Progeny
*Album: We Will Rise Again [single]
*Year: 2019
*Genre: Occult/Stoner Doom Metal
*Country: Russian Federation (IMG:http://metalarea.org/forum/style_images/flags/Russian%20Federation.png)
*Format: mp3@CBR320kbps
*Size: 28MB

Tracklist:
1. We Will Rise Again 11:38
******************************
Total playing time: 11:38



Technical info
(IMG:http://metalarea.org/images/spectrogram/2019_Feb/28082241eaba9b76f393feaaeb0111fc.png)
Input File: Progeny - We Will Rise Again - 01 We Will Rise Again.mp3
Channels : 2
Sample Rate : 44100
Precision : 16-bit
Duration : 00:11:38.16 = 30788900 samples = 52362.1 CDDA sectors
File Size : 28.1M
Bit Rate : 321k
Sample Encoding: MPEG audio (layer I, II or III)
Comments :
Title=We Will Rise Again
Artist=Progeny
Album=We Will Rise Again
Tracknumber=1
Year=2019



Register


Go to the top of the page
  Insert nick Quick quote
+Quote Post
 
Start new topic
Replies (1 - 1)
post Feb 12 2019, 07:59:47
Post #2

Шесть Литров
******
Group: Металариец
Posts: 533
Releases: 5
From: Ивантеевка, Московская область
On Forums: 11 years 8 months
Thanks: 171 time(s)
Russian Federation


Абсолютно не интересное 11-минутное действо. Если ребята претендуют на полноформатник, то надеюсь там будет что то более интересное. Пока что больше похоже на средство для желающих (IMG:style_emoticons/default/hung.gif)
Go to the top of the page
  Insert nick Quick quote
+Quote Post

Reply to this topicStart new topic
1 User(s) are reading this topic (1 Guests and 0 Anonymous Users)
0 Members:

 



- Lo-Fi Version Support form
Copyrights and abuse reports form
Time is now: 19th August 2019 - 17:17:44