Welcome Guest ( Log In | Register )

> Foreboder - Road To Nowhere; Paved With Bones (2019), Blackened Sludge (D4)
post Feb 11 2019, 13:20:17
Post #1

Аннигилятор пивА
Group Icon
Group: V.I.P
Posts: 52,356
Releases: 16556
From: Koenigsberg - TILZIT
On Forums: 13 years 1 month
Thanks: 361403 time(s)
Russian Federation


(IMG:https://metalarea.org/images/audiocovers/2019_Feb/acov_tid317433_thumb.jpg)

*Artist: Foreboder
*Album: Road To Nowhere; Paved With Bones
*Year: 2019
*Genre: Blackened Sludge
*Country: United Kingdom (IMG:https://metalarea.org/forum/style_images/flags/United%20Kingdom.png)
*Format: mp3@CBR320kbps
*Size: 109MB

Tracklist:
01. All Hail
02. Devilred
03. Skinwalker
04. Laying Siege to Shattered Glass
05. Thrones
06. Slavemason
07. Crippled Limb
08. Road to Nowhere; Paved with Bones
******************************
Total playing time: 47:48




Extended info


Technical info
(IMG:https://metalarea.org/images/spectrogram/2019_Feb/e180b8088029b08e7a27294b06b4003b.png)
Input File: Foreboder - Road to Nowhere; Paved With Bones - 05 Thrones.mp3
Channels : 2
Sample Rate : 44100
Precision : 16-bit
Duration : 00:03:13.26 = 8522942 samples = 14494.8 CDDA sectors
File Size : 7.80M
Bit Rate : 323k
Sample Encoding: MPEG audio (layer I, II or III)
Comments :
Title=Thrones
Artist=Foreboder
Album=Road to Nowhere; Paved With Bones
Tracknumber=5
Year=2019



Register


Go to the top of the page
  Insert nick Quick quote
+Quote Post
 
Start new topic
Replies (1 - 1)
post Feb 12 2019, 14:24:32
Post #2

Правь статус, ####!111
**************
Group: Металариец
Posts: 2,497
Releases: 3
From: Dnipro
On Forums: 11 years 3 days
Thanks: 677 time(s)
Ukraine


Ёшкин кот, тут музло перегруженное (IMG:style_emoticons/default/12.gif)
Go to the top of the page
  Insert nick Quick quote
+Quote Post

Reply to this topicStart new topic
2 User(s) are reading this topic (2 Guests and 0 Anonymous Users)
0 Members:

 



- Lo-Fi Version Support form
Copyrights and abuse reports form
Time is now: 17th July 2019 - 13:32:23