Welcome Guest ( Log In | Register )

> Coffee Decaffeination - To Serve Mug [ep] (2019), Grindcore
post Feb 11 2019, 13:52:44
Post #1

Serial Uploader
Group Icon
Group: V.I.P
Posts: 35,619
Releases: 33817
From: Lithuania
On Forums: 11 years 1 month
Thanks: 389457 time(s)
Lithuania


(IMG:https://metalarea.org/images/audiocovers/2019_Feb/acov_tid317435_thumb.jpg)

*Artist: Coffee Decaffeination
*Album: To Serve Mug [ep]
*Year: 2019
*Genre: Grindcore
*Country: United States (IMG:https://metalarea.org/forum/style_images/flags/United%20States.png)
*Format: mp3@CBR320kbps
*Size: 8MB

Tracklist:
01. To Serve Mug 00:24
02. Cremafied 00:22
03. Turn On The Roasters 00:30
04. Birth. Coffee. Death 00:14
05. The Regurgitation Of Cappuccino 00:14
06. One Thousand Times Decaffeination 00:14
07. Decaffeination Of Coffee 00:18
08. The Prophets Of Latte 00:20
09. Filterlicker 00:23
******************************
Total playing time: 2:59



Technical info
(IMG:https://metalarea.org/images/spectrogram/2019_Feb/f52403d162452a75f3e087d2e3f50218.png)
Input File: 02. Cremafied.mp3
Channels : 2
Sample Rate : 44100
Precision : 16-bit
Duration : 00:00:22.57 = 995381 samples = 1692.82 CDDA sectors
File Size : 1.00M
Bit Rate : 356k
Sample Encoding: MPEG audio (layer I, II or III)
Comments :
Title=Cremafied
Artist=Coffee Decaffeination
Album=To Serve Mug
Tracknumber=2
Year=2019



Register


Go to the top of the page
  Insert nick Quick quote
+Quote Post
 
Start new topic
Replies (1 - 1)
post Feb 12 2019, 13:55:19
Post #2

Шесть Литров
******
Group: Металариец
Posts: 554
Releases: 0
From: Somewhere along nowhere
On Forums: 10 months 3 weeks
Thanks: 391 time(s)
United States Minor Outlying Islands


И что они такое, кто слушал?
Судя по названию, кавер-стеб группа на Cattle decapitation(To serve man)
по аналогии с Cannabis corpse etc (IMG:style_emoticons/default/13.gif)
Go to the top of the page
  Insert nick Quick quote
+Quote Post

Reply to this topicStart new topic
2 User(s) are reading this topic (2 Guests and 0 Anonymous Users)
0 Members:

 



- Lo-Fi Version Support form
Copyrights and abuse reports form
Time is now: 18th July 2019 - 12:09:35