Welcome Guest ( Log In | Register )

> Releases Upload / Добавление релизов

Добавить релиз тут / Click here to add release
Рекомендованные обменники / Recommended file shares

> Impalers - From Ashes To Iron [ep] (2019), Old School Thrash Metal (D6)
post Feb 11 2019, 14:17:40
Post #1

Аннигилятор пивА
Group Icon
Group: V.I.P
Posts: 52,278
Releases: 16523
From: Koenigsberg - TILZIT
On Forums: 12 years 8 months
Thanks: 357927 time(s)
Russian Federation


(IMG:https://metalarea.org/images/audiocovers/2019_Feb/acov_tid317437_thumb.jpg)

*Artist: Impalers
*Album: From Ashes To Iron [ep]
*Year: 2019
*Genre: Old School Thrash Metal
*Country: Denmark (IMG:https://metalarea.org/forum/style_images/flags/Denmark.png)
*Format: mp3@CBR320kbps
*Size: 53MB

Tracklist:
01. Singularity
02. From Ashes to Iron
03. Altered Carbon
04. Razorneck
05. Power Thrashing Death (Whiplash cover)
******************************
Total playing time: 23:10



Extended info
Søren Crawack - Vocals, Guitars (rhythm) (2007-present) See also: ex-Ironguard
Rasmus Kjær - Drums (2009-present) See also: Disintegrated
Thomas Carnell - Guitars (lead) (2011-present)
Kenneth Frandsen - Bass (2013-present) See also: ex-Beyond Reality, ex-Defiled Dreams, ex-Illnath, ex-Philomel's Epitaph, ex-Renégadeth, ex-Seven Thorns, ex-Indoctrination


Technical info
(IMG:https://metalarea.org/images/spectrogram/2019_Feb/6faa96f3eb918c0bba4506e1e5618ece.png)
Input File: 1 - Singularity.mp3
Channels : 2
Sample Rate : 44100
Precision : 16-bit
Duration : 00:04:04.02 = 10761414 samples = 18301.7 CDDA sectors
File Size : 9.91M
Bit Rate : 325k
Sample Encoding: MPEG audio (layer I, II or III)
Comments :
Title=Singularity
Artist=Impalers
Album=From Ashes to Iron
Tracknumber=1
Year=2019
Genre=Alternative/Indie Rock/Metal
Discnumber=1



Register


Go to the top of the page
  Insert nick Quick quote
+Quote Post
 
Start new topic
Replies (1 - 3)
post Feb 11 2019, 16:21:52
Post #2

Аннигилятор пивА
Group Icon
Group: V.I.P
Posts: 52,278
Releases: 16523
From: Koenigsberg - TILZIT
On Forums: 12 years 8 months
Thanks: 357927 time(s)
Russian Federation


mirror
Register


Go to the top of the page
  Insert nick Quick quote
+Quote Post
post Feb 12 2019, 14:22:02
Post #3

Правь статус, ####!111
**************
Group: Металариец
Posts: 2,119
Releases: 0
From: Dnipro
On Forums: 10 years 7 months
Thanks: 537 time(s)
Ukraine


Ну у этих чертей всегда все на уровне (IMG:style_emoticons/default/20.gif)
Go to the top of the page
  Insert nick Quick quote
+Quote Post
post Feb 15 2019, 18:47:30
Post #4

Group: Подсевший
Posts: 15
Releases: 0
On Forums: 10 years 8 months
Thanks: 5 time(s)
Russian Federation


ЦИТАТА(isvili @ Feb 12 2019, 18:22:02) *
Ну у этих чертей всегда все на уровне (IMG:style_emoticons/default/20.gif)

...было, ровно до этой епихи. Здесь же начались какие-то невообразимые сопли - либо в припевах, либо прям от начала и до конца песни. Не нужны этой группе такие замедления, а этому вокалисту нельзя так нудно петь.
Хотя бы на Razorneck ребята вспомнили, что они за музыку играют. Ну и Power Thrashing Death естественно хорош, ибо кавер на Whiplash.
Go to the top of the page
  Insert nick Quick quote
+Quote Post

Reply to this topicStart new topic
2 User(s) are reading this topic (2 Guests and 0 Anonymous Users)
0 Members:

 



- Lo-Fi Version Support form
Copyrights and abuse reports form
Time is now: 19th February 2019 - 18:20:45