Welcome Guest ( Log In | Register )

 
Reply to this topicStart new topic
> Hutt - Apocalipster (2018), Death Metal/Grindcore (D5)
post Feb 11 2019, 14:21:24
Post #1

Serial Uploader
Group Icon
Group: V.I.P
Posts: 36,300
Releases: 34494
From: Lithuania
On Forums: 11 years 4 months
Thanks: 401224 time(s)
Lithuania


(IMG:https://metalarea.org/images/audiocovers/2019_Feb/acov_tid317438_thumb.jpg)

*Artist: Hutt
*Album: Apocalipster
*Year: 2018
*Genre: Death Metal/Grindcore
*Country: Brazil (IMG:https://metalarea.org/forum/style_images/flags/Brazil.png)
*Format: mp3@CBR320kbps
*Size: 66MB

Tracklist:
01. Flores, Velas e Caixão 01:13
02. Perdedor 01:13
03. Tiro e Teco 00:59
04. AUSC 01:04
05. Estopim 01:21
06. Nasceu pra Ser Inglês 00:38
07. Ressurreição do Rico 01:01
08. Fume 00:49
09. Sete Palmos de Esperança 01:05
10. Serão os Esquimós Índios em Iglus 00:11
11. Carimbador 01:20
12. Seja Bem-Vindo ao Circo 00:59
13. Hutt 01:05
14. Burzulão 00:19
15. Faniquito Sorumbático 00:50
16. Danzig In Tha Rain 00:23
17. Salve 00:36
18. Eldorado 02:01
19. Shurimburi 00:33
20. Trágico e Não Letal 01:50
21. Desempregrind 01:47
22. Papai Sabe Tudo 00:53
23. Sem Alma na Alba 01:12
24. Restou Você 00:50
25. Medusa 01:50
******************************
Total playing time: 26:02

(IMG:https://metalarea.org/images/myspace.png)


(IMG:https://metalarea.org/images/youtube.png)

Technical info
(IMG:https://metalarea.org/images/spectrogram/2019_Feb/5667fc7b52dcc28fab12b2f369038eda.png)
Input File: 02. Perdedor.mp3
Channels : 2
Sample Rate : 44100
Precision : 16-bit
Duration : 00:01:13.72 = 3251096 samples = 5529.07 CDDA sectors
File Size : 3.18M
Bit Rate : 345k
Sample Encoding: MPEG audio (layer I, II or III)
Comments :
Title=Perdedor
Artist=HUTT
Album=Apocalipster
Tracknumber=2
Year=2017



Register


Go to the top of the page
  Insert nick Quick quote
+Quote Post

Reply to this topicStart new topic
1 User(s) are reading this topic (1 Guests and 0 Anonymous Users)
0 Members:

 



- Lo-Fi Version Support form
Copyrights and abuse reports form
Time is now: 18th October 2019 - 12:38:14