Welcome Guest ( Log In | Register )

 
Reply to this topicStart new topic
> Brandon Burch - Disconnection (2019), Instrumental/Progressive Metal
post Feb 11 2019, 14:28:41
Post #1

Serial Uploader
Group Icon
Group: V.I.P
Posts: 35,608
Releases: 33815
From: Lithuania
On Forums: 11 years 1 month
Thanks: 389391 time(s)
Lithuania


(IMG:https://metalarea.org/images/audiocovers/2019_Feb/acov_tid317439_thumb.jpg)

*Artist: Brandon Burch
*Album: Disconnection
*Year: 2019
*Genre: Instrumental/Progressive Metal
*Country: United States (IMG:https://metalarea.org/forum/style_images/flags/United%20States.png)
*Format: mp3@CBR320kbps
*Size: 124MB

Tracklist:
01. Digital Footprint
02. Virtual Reality
03. Flawed by Design
04. The Glitch
05. Time Bend
06. Digital Noise
07. Disconnection
08. Arc
09. Recharged
10. New Reality
11. Cognizance
******************************
Total playing time: 54:09



Technical info
(IMG:https://metalarea.org/images/spectrogram/2019_Feb/ac7a3af1294b851a1268a605e50b674c.png)
Input File: 2 - Virtual Reality.mp3
Channels : 2
Sample Rate : 44100
Precision : 16-bit
Duration : 00:05:27.57 = 14445705 samples = 24567.5 CDDA sectors
File Size : 13.2M
Bit Rate : 322k
Sample Encoding: MPEG audio (layer I, II or III)
Comments :
Title=Virtual Reality
Artist=Brandon Burch
Album=Disconnection
Tracknumber=2
Year=2019
Genre=Metal
Discnumber=1



Register


Go to the top of the page
  Insert nick Quick quote
+Quote Post

Reply to this topicStart new topic
2 User(s) are reading this topic (2 Guests and 0 Anonymous Users)
0 Members:

 



- Lo-Fi Version Support form
Copyrights and abuse reports form
Time is now: 17th July 2019 - 13:55:36