Welcome Guest ( Log In | Register )

> Fattyú - Hagyaték (2018), Pagan Black Metal
post Feb 11 2019, 15:17:35
Post #1

Serial Uploader
Group Icon
Group: V.I.P
Posts: 34,819
Releases: 33032
From: Lithuania
On Forums: 10 years 10 months
Thanks: 377691 time(s)
Lithuania


(IMG:https://metalarea.org/images/audiocovers/2019_Feb/acov_tid317442_thumb.jpg)

*Artist: Fattyú
*Album: Hagyaték
*Year: 2018
*Genre: Pagan Black Metal
*Country: Hungary (IMG:https://metalarea.org/forum/style_images/flags/Hungary.png)
*Format: mp3@CBR320kbps
*Size: 59MB

Tracklist:
01. Lidércek Fohásza 03:22
02. Bakkecske Éneke 04:09
03. Garabonciás 05:28
04. Királynőnk 03:56
05. Boszorkányok 03:50
06. Átkozott Föld 02:54
07. Hagyaték 02:01
******************************
Total playing time: 25:40

Preview 1

(IMG:https://metalarea.org/images/youtube.png)

Technical info
(IMG:https://metalarea.org/images/spectrogram/2019_Feb/74e16cdccb6a1624c43628e3db1214ae.png)
Input File: 02. Bakkecske _®neke.mp3
Channels : 2
Sample Rate : 44100
Precision : 16-bit
Duration : 00:04:10.03 = 11026367 samples = 18752.3 CDDA sectors
File Size : 10.1M
Bit Rate : 324k
Sample Encoding: MPEG audio (layer I, II or III)
Comments :
Title=Bakkecske éneke
Artist=Fattyú
Album=Hagyaték
Tracknumber=2
Year=2019



Register


Go to the top of the page
  Insert nick Quick quote
+Quote Post
 
Start new topic
Replies (1 - 1)
post Feb 12 2019, 14:18:56
Post #2

Правь статус, ####!111
**************
Group: Металариец
Posts: 2,312
Releases: 1
From: Dnipro
On Forums: 10 years 9 months
Thanks: 586 time(s)
Ukraine


Не ожидал такого непотреба от венгерской сцены (IMG:style_emoticons/default/13.gif)
Go to the top of the page
  Insert nick Quick quote
+Quote Post

Reply to this topicStart new topic
1 User(s) are reading this topic (1 Guests and 0 Anonymous Users)
0 Members:

 



- Lo-Fi Version Support form
Copyrights and abuse reports form
Time is now: 24th April 2019 - 01:17:01