Welcome Guest ( Log In | Register )

> Verker - Riddle Weaver, The Journey To Darkness And Fate [demo] (2018), Atmospheric Pagan Black Metal
post Feb 11 2019, 15:44:44
Post #1

Serial Uploader
Group Icon
Group: V.I.P
Posts: 36,300
Releases: 34494
From: Lithuania
On Forums: 11 years 4 months
Thanks: 401222 time(s)
Lithuania


(IMG:https://metalarea.org/images/audiocovers/2019_Feb/acov_tid317444_thumb.jpg)

*Artist: Verker
*Album: Riddle Weaver, The Journey To Darkness And Fate [demo]
*Year: 2018
*Genre: Atmospheric Pagan Black Metal
*Country: United States (IMG:https://metalarea.org/forum/style_images/flags/United%20States.png)
*Format: mp3@CBR320kbps
*Size: 63MB

Tracklist:
01. Inträde (Introduction) 02:52
02. Riddle Weaver Pt.I: The Ride of the Riddles 12:50
03. Riddle Weaver Pt.II: ...Of Life and Death 12:21
******************************
Total playing time: 28:03



(IMG:https://metalarea.org/images/youtube.png)

Technical info
(IMG:https://metalarea.org/images/spectrogram/2019_Feb/6968a1362775b5e6e7eddbba54eedfd4.png)
Input File: 02. Riddle Weaver Pt.I- The Ride of the Riddles.mp3
Channels : 2
Sample Rate : 44100
Precision : 16-bit
Duration : 00:12:50.84 = 33993912 samples = 57812.8 CDDA sectors
File Size : 30.9M
Bit Rate : 321k
Sample Encoding: MPEG audio (layer I, II or III)
Comments :
Title=Riddle Weaver Pt.I: The Ride of the Riddles
Artist=Verker
Album=Riddle Weaver, The Journey to Darkness and Fate (Demo 2018)
Tracknumber=2
Year=2018



Register


Go to the top of the page
  Insert nick Quick quote
+Quote Post
 
Start new topic
Replies (1 - 1)
post Feb 12 2019, 09:37:42
Post #2

Четыре Литра
****
Group: Металариец
Posts: 365
Releases: 0
On Forums: 8 years 9 months
Thanks: 293 time(s)
Ukraine


Verker Serduchker (IMG:style_emoticons/default/genius.gif)


Go to the top of the page
  Insert nick Quick quote
+Quote Post

Reply to this topicStart new topic
1 User(s) are reading this topic (1 Guests and 0 Anonymous Users)
0 Members:

 



- Lo-Fi Version Support form
Copyrights and abuse reports form
Time is now: 18th October 2019 - 12:35:06