Welcome Guest ( Log In | Register )

> И неформату есть предел.

Рэп/хип-хоп/шансон/поп удаляются. Для них есть свои порталы.

> Carlton Melton - Mind Minerals (2018), Psychedelic/Space Rock
post Feb 11 2019, 16:43:10
Post #1

Правь статус, ####!111
**************
Group: Металариец
Posts: 37,287
Releases: 547
On Forums: 9 years 8 months
Thanks: 28666 time(s)
Russian Federation


(IMG:http://metalarea.org/images/audiocovers/2019_Feb/acov_tid317445_thumb.jpg)

*Artist: Carlton Melton
*Album: Mind Minerals
*Year: 2018
*Genre: Psychedelic/Space Rock
*Country: United States (IMG:http://metalarea.org/forum/style_images/flags/United%20States.png)
*Format: mp3@CBR320kbps
*Size: 175MB

Tracklist:
1. Untimely 01:37
2. Electrified Sky 08:30
3. The Lighthouse 03:56
4. Eternal Returns 07:01
5. Snow Moon 10:17
6. A Basketful Of Trumpets 07:41
7. Sea Legs 08:34
8. Way Back When 05:07
9. Climbing The Ladder 04:16
10. Atmospheric River 13:08
11. Psychoticedelicosis 06:26
******************************
Total playing time: 1:16:33



Technical info
(IMG:http://metalarea.org/images/spectrogram/2019_Feb/ef627fb0a04ec0a04398f7a71ee3c07e.png)
Input File: 11. Psychoticedelicosis.mp3
Channels : 2
Sample Rate : 44100
Precision : 16-bit
Duration : 00:06:26.45 = 17042577 samples = 28984 CDDA sectors
File Size : 15.5M
Bit Rate : 321k
Sample Encoding: MPEG audio (layer I, II or III)
Comments :
Title=Psychoticedelicosis
Artist=Carlton Melton
Album=Mind Minerals
Tracknumber=11
Year=2018
Genre=Psychedelic/Space Rock



Register


Go to the top of the page
  Insert nick Quick quote
+Quote Post
 
Start new topic
Replies (1 - 1)
post Feb 11 2019, 20:00:22
Post #2

Правь статус, ####!111
**************
Group: Металариец
Posts: 37,287
Releases: 547
On Forums: 9 years 8 months
Thanks: 28666 time(s)
Russian Federation


Трипуем, господа! (IMG:style_emoticons/default/pray.gif)

Офигительнейшей красоты музыка. В этом жанре множество групп, но эта банда - поистине прекрасна, ибо мелодизм здесь такой, что не перестаешь восторгаться (IMG:style_emoticons/default/27.gif)
Go to the top of the page
  Insert nick Quick quote
+Quote Post

Reply to this topicStart new topic
1 User(s) are reading this topic (1 Guests and 0 Anonymous Users)
0 Members:

 



- Lo-Fi Version Support form
Copyrights and abuse reports form
Time is now: 17th February 2019 - 00:15:59