Welcome Guest ( Log In | Register )

> Releases Upload / Добавление релизов

Добавить релиз тут / Click here to add release
Рекомендованные обменники / Recommended file shares

> Precambrian - Aeon [ep] (2016), Black Metal
post Feb 11 2019, 17:57:36
Post #1

ΕΥΜΕΝΙΔΕΣ
**************
Group: Металариец
Posts: 2,018
Releases: 25
From: Киев
On Forums: 12 years 1 day
Thanks: 2625 time(s)
Ukraine


(IMG:https://metalarea.org/images/audiocovers/2019_Feb/acov_tid317447_thumb.jpg)

*Artist: Precambrian
*Album: Aeon [ep]
*Year: 2016
*Genre: Black Metal
*Country: Ukraine (IMG:https://metalarea.org/forum/style_images/flags/Ukraine.png)
*Format: mp3@CBR320kbps
*Size: 23MB

Tracklist:
1. Permafrost 05:52
2. Sulphur 4:10
******************************
Total playing time: 10:02

Technical info
(IMG:https://metalarea.org/images/spectrogram/2019_Feb/420f48843fb711b7b118f683eb04b554.png)
Input File: 01 - Permafrost.mp3
Channels : 2
Sample Rate : 48000
Precision : 16-bit
Duration : 00:05:51.48 = 16871184 samples ~ 26361.2 CDDA sectors
File Size : 14.1M
Bit Rate : 322k
Sample Encoding: MPEG audio (layer I, II or III)
Comments :
Title=Permafrost
Artist=Precambrian
Album=Aeon (EP)
Tracknumber=01
Year=2016
Genre=Black Metal



Register


Go to the top of the page
  Insert nick Quick quote
+Quote Post
 
Start new topic
Replies (1 - 4)
post Feb 12 2019, 08:35:59
Post #2

Русь Понад Усе!
**************
Group: Металариец
Posts: 4,139
Releases: 15
From: Украина
On Forums: 11 years 5 months
Thanks: 1597 time(s)
Ukraine


Очень круто !!! (IMG:style_emoticons/default/bye.gif)
Go to the top of the page
  Insert nick Quick quote
+Quote Post
post Feb 12 2019, 09:40:54
Post #3

Два Литра
**
Group: Завсегдатай
Posts: 103
Releases: 0
On Forums: 1 year 11 months
Thanks: 13 time(s)
Unknown


Can you share it on Yandex or CloudMail?
Thx.
Go to the top of the page
  Insert nick Quick quote
+Quote Post
post Feb 12 2019, 17:09:33
Post #4

ΕΥΜΕΝΙΔΕΣ
**************
Group: Металариец
Posts: 2,018
Releases: 25
From: Киев
On Forums: 12 years 1 day
Thanks: 2625 time(s)
Ukraine


Register


Thanks:
Go to the top of the page
  Insert nick Quick quote
+Quote Post
post Feb 12 2019, 19:02:36
Post #5

Три Литра
***
Group: Завсегдатай
Posts: 283
Releases: 16
From: France
On Forums: 9 years 7 months
Thanks: 460 time(s)
France


Thanks a lot ! (IMG:style_emoticons/default/true_black.gif)

Edit: Youtube
Go to the top of the page
  Insert nick Quick quote
+Quote Post

Reply to this topicStart new topic
2 User(s) are reading this topic (2 Guests and 0 Anonymous Users)
0 Members:

 



- Lo-Fi Version Support form
Copyrights and abuse reports form
Time is now: 19th February 2019 - 18:41:19