Welcome Guest ( Log In | Register )

> Releases Upload / Добавление релизов

Добавить релиз тут / Click here to add release
Рекомендованные обменники / Recommended file shares

> Valhkyr - Tales Of Battle (2019), Heavy/Power Metal
post Feb 11 2019, 18:18:28
Post #1

Аннигилятор пивА
Group Icon
Group: V.I.P
Posts: 52,221
Releases: 16496
From: Koenigsberg - TILZIT
On Forums: 12 years 8 months
Thanks: 357261 time(s)
Russian Federation


(IMG:https://metalarea.org/images/audiocovers/2019_Feb/acov_tid317449_thumb.jpg)

*Artist: Valhkyr
*Album: Tales Of Battle
*Year: 2019
*Genre: Heavy/Power Metal
*Country: Chile (IMG:https://metalarea.org/forum/style_images/flags/Chile.png)
*Format: mp3@CBR320kbps
*Size: 71MB

Tracklist:
1. Moon of the Wolf 04:15
2. War of Peace 05:37
3. Coven 04:42
4. Glory and Honor 04:38
5. Winter Night 04:53
6. Blessed Crimes 04:39
7. Valhkyr 05:11
******************************
Total playing time: 33:55



Extended info
Valhkyr is defined as Metal without any substyle as it has various, such as Power, Progressive, Heavy, Speed, etc.

Luis - Drums See also: ex-Assylum
Guillermo - Guitars See also: Blaxem
Jaime - Guitars (2017-present) See also: ex-Assylum
Estefanía - Vocals (2017-present)


Technical info
(IMG:https://metalarea.org/images/spectrogram/2019_Feb/6674f9562fdd2555cf2a89dde7e71eb6.png)
Input File: 01. Moon of the Wolf.mp3
Channels : 2
Sample Rate : 44100
Precision : 16-bit
Duration : 00:04:14.61 = 11228125 samples = 19095.5 CDDA sectors
File Size : 10.3M
Bit Rate : 323k
Sample Encoding: MPEG audio (layer I, II or III)
Comments :
Title=Moon of the Wolf
Artist=Valhkyr
Album=Tales of Battle
Tracknumber=1
Year=2019
Discnumber=1



Register


Go to the top of the page
  Insert nick Quick quote
+Quote Post
 
Start new topic
Replies (1 - 3)
post Feb 11 2019, 19:39:50
Post #2

Аннигилятор пивА
Group Icon
Group: V.I.P
Posts: 52,221
Releases: 16496
From: Koenigsberg - TILZIT
On Forums: 12 years 8 months
Thanks: 357261 time(s)
Russian Federation


вокал приятный, но мне кажется для такого голоса тяжеловата музыка

Go to the top of the page
  Insert nick Quick quote
+Quote Post
post Feb 12 2019, 06:36:23
Post #3

Четыре Литра
****
Group: Металариец
Posts: 317
Releases: 4
From: Саратов
On Forums: 12 years 1 month
Thanks: 309 time(s)
Russian Federation


QUOTE(aesteticvice @ 11th February 2019 - 23:39:50) *
вокал приятный, но мне кажется для такого голоса тяжеловата музыка

Между нот поёт) Выпадает из тональности. Жесть какая-то вообще)


Thanks:
Go to the top of the page
  Insert nick Quick quote
+Quote Post
post Feb 13 2019, 05:45:34
Post #4

Литр
*
Group: Подсевший
Posts: 90
Releases: 1
On Forums: 12 years 10 months
Thanks: 27 time(s)
Russian Federation


не осилил
Go to the top of the page
  Insert nick Quick quote
+Quote Post

Reply to this topicStart new topic
1 User(s) are reading this topic (1 Guests and 0 Anonymous Users)
0 Members:

 



- Lo-Fi Version Support form
Copyrights and abuse reports form
Time is now: 17th February 2019 - 00:27:54