Welcome Guest ( Log In | Register )

> И неформату есть предел.

Рэп/хип-хоп/шансон/поп удаляются. Для них есть свои порталы.

 
Reply to this topicStart new topic
> Catapilla - Catapilla (1971), Progressive/Psychedelic/Jazz Rock
post Feb 12 2019, 14:29:02
Post #1

Правь статус, ####!111
**************
Group: Металариец
Posts: 37,287
Releases: 547
On Forums: 9 years 8 months
Thanks: 28666 time(s)
Russian Federation


(IMG:http://metalarea.org/images/audiocovers/2019_Feb/acov_tid317480_thumb.jpg)

*Artist: Catapilla
*Album: Catapilla
*Year: 1971
*Genre: Progressive/Psychedelic/Jazz Rock
*Country: United Kingdom (IMG:http://metalarea.org/forum/style_images/flags/United%20Kingdom.png)
*Format: mp3@CBR320kbps
*Size: 108MB

Tracklist:
1. Naked Truth 15:42
2. Tumbleweed 03:58
3. Promises 05:43
4. Embryonic Fusion 24:08
******************************
Total playing time: 49:31

(IMG:http://metalarea.org/images/youtube.png)

Technical info
(IMG:http://metalarea.org/images/spectrogram/2019_Feb/e734428b9ad1375b52d1a78b7785632f.png)
Input File: Catapilla - 01 - Naked Truth.mp3
Channels : 2
Sample Rate : 44100
Precision : 16-bit
Duration : 00:15:42.42 = 41560810 samples = 70681.6 CDDA sectors
File Size : 37.7M
Bit Rate : 320k
Sample Encoding: MPEG audio (layer I, II or III)
Comments :
Title=Naked Truth
Artist=Catapilla
Album=Catapilla
Tracknumber=1/4
Year=1971
Genre=Progressive Rock



Register


Thanks:
Go to the top of the page
  Insert nick Quick quote
+Quote Post

Reply to this topicStart new topic
1 User(s) are reading this topic (1 Guests and 0 Anonymous Users)
0 Members:

 



- Lo-Fi Version Support form
Copyrights and abuse reports form
Time is now: 17th February 2019 - 00:15:27