Welcome Guest ( Log In | Register )

> Traveler - Traveler (2019), Heavy Metal
post Feb 14 2019, 15:06:28
Post #1

Serial Uploader
Group Icon
Group: V.I.P
Posts: 36,583
Releases: 34772
From: Lithuania
On Forums: 11 years 5 months
Thanks: 407022 time(s)
Lithuania


(IMG:https://metalarea.org/images/audiocovers/2019_Feb/acov_tid317600_thumb.jpg)

*Artist: Traveler
*Album: Traveler
*Year: 2019
*Genre: Heavy Metal
*Country: Canada (IMG:https://metalarea.org/forum/style_images/flags/Canada.png)
*Format: mp3@CBR320kbps
*Size: 89MB

Tracklist:
1. Starbreaker 05:41
2. Street Machine 04:40
3. Behind the Iron 04:37
4. Konamized 02:09
5. Up to You 03:47
6. Fallen Heroes 05:58
7. Mindless Maze 06:17
8. Speed Queen 05:28
******************************
Total playing time: 38:48




Technical info
(IMG:https://metalarea.org/images/spectrogram/2019_Feb/dd048cfbeefb377ece5e468835425115.png)
Input File: 2 - Street Machine.mp3
Channels : 2
Sample Rate : 44100
Precision : 16-bit
Duration : 00:04:40.28 = 12360480 samples = 21021.2 CDDA sectors
File Size : 11.4M
Bit Rate : 324k
Sample Encoding: MPEG audio (layer I, II or III)
Comments :
Title=Street Machine
Artist=Traveler
Album=Traveler
Tracknumber=2
Year=2019
Genre=Rock/Hard Rock/Metal
Discnumber=1



Register


Go to the top of the page
  Insert nick Quick quote
+Quote Post
 
Start new topic
Replies (1 - 7)
post Feb 14 2019, 18:46:47
Post #2

hearer & reader
**************
Group: Металариец
Posts: 8,233
Releases: 111
From: Moscow
On Forums: 12 years 2 months
Thanks: 7757 time(s)
Russian Federation


Жан-Пьера подменили.
Borrowed Time я стёр из-за его блеяния.
А тут поёт пристойно.
Go to the top of the page
  Insert nick Quick quote
+Quote Post
post Feb 14 2019, 21:18:20
Post #3

Четыре Литра
****
Group: Металариец
Posts: 326
Releases: 4
From: Саратов
On Forums: 12 years 11 months
Thanks: 313 time(s)
Russian Federation


QUOTE(AHBAnep @ 14th February 2019 - 22:46:47) *
А тут поёт пристойно.

Распелся, плюс, возможно, саунд с эхом помогает. Но он неплохо пел уже в Gatekeeper - песенка про Киммерию там почти хит)


Thanks:
Go to the top of the page
  Insert nick Quick quote
+Quote Post
post Feb 15 2019, 05:35:53
Post #4

Наливай!
**************
Group: Металариец
Posts: 5,476
Releases: 27
From: Москва-Бибирево
On Forums: 11 years 8 months
Thanks: 2665 time(s)
Russian Federation




Другой обменник пжлст.


Thanks:
(1) artscald,
Go to the top of the page
  Insert nick Quick quote
+Quote Post
post Feb 15 2019, 10:12:18
Post #5

Маньяк
**********
Group: Металариец
Posts: 1,211
Releases: 0
From: Moscow
On Forums: 12 years 1 month
Thanks: 697 time(s)
Russian Federation


QUOTE(SAPOGi @ 15th February 2019 - 07:35:53) *
Другой обменник пжлст.


Register


Отличный альбом, продолжающий замышательные традиции Маниллы Роад, Омена и прочих амеро-митольных групп середины 80-х.
Из современников что-то похожее делают Визигот, с той лишь разницей, что там лиды не так сильно выражаются, а припевы погимноподобнее.


Go to the top of the page
  Insert nick Quick quote
+Quote Post
post Feb 23 2019, 18:46:02
Post #6

Перевозчик
**************
Group: Металариец
Posts: 3,081
Releases: 0
On Forums: 11 years 5 months
Thanks: 677 time(s)
Russian Federation


Визигот действительно чем-то отдалённо напомнило, но он звучит как-то современней, что ли. А эти, как и большинство попадающихся в последнее время, думают, что говённый звук из жoпы мамонта делает их прям тру дальше некуда. Да и вообще давно пора завязывать дрoчить на олдскул. Столько развелось, что аж скучно стало, а талантливо всё равно делают единицы, которых отыскать шанс, как обнаружить в навозной куче алмаз.


Thanks:
(1) Quacksha,
Go to the top of the page
  Insert nick Quick quote
+Quote Post
post Feb 26 2019, 07:57:34
Post #7

Маньяк
**********
Group: Металариец
Posts: 1,211
Releases: 0
From: Moscow
On Forums: 12 years 1 month
Thanks: 697 time(s)
Russian Federation


QUOTE(zauber1 @ 23rd February 2019 - 20:46:02) *
как и большинство попадающихся в последнее время, думают, что говённый звук из жoпы мамонта делает их прям тру дальше некуда.


Да, со звуком не супер. Но они сами говорили, что бюджетец у них не ахти, и всё это не специально. С другой стороны, сами песни здесь годнейшие.
Go to the top of the page
  Insert nick Quick quote
+Quote Post
post Feb 26 2019, 12:57:27
Post #8

И Ван Дамм По Делам Вашим!
**************
Group: Металариец
Posts: 17,977
Releases: 26
On Forums: 11 years 5 months
Thanks: 9700 time(s)
Honduras


ЦИТАТА(Quacksha @ Feb 26 2019, 08:57:34) *
Да, со звуком не супер.

Тем ни менее альбом хороший и слушается легко.
Go to the top of the page
  Insert nick Quick quote
+Quote Post

Reply to this topicStart new topic
2 User(s) are reading this topic (2 Guests and 0 Anonymous Users)
0 Members:

 



- Lo-Fi Version Support form
Copyrights and abuse reports form
Time is now: 7th December 2019 - 07:45:32