Welcome Guest ( Log In | Register )

> Shardana - Shardana [ep] (2010), Folk/Thrash Metal
post Feb 15 2019, 10:41:32
Post #1

Join my religion, or die
**************
Group: Металариец
Posts: 10,929
Releases: 1635
From: Питера
On Forums: 11 years 6 months
Thanks: 21570 time(s)
Russian Federation


(IMG:http://metalarea.org/images/audiocovers/2019_Feb/acov_tid317655_thumb.jpg)

*Artist: Shardana
*Album: Shardana [ep]
*Year: 2010
*Genre: Folk/Thrash Metal
*Country: Italy (IMG:http://metalarea.org/forum/style_images/flags/Italy.png)
*Format: mp3@CBR320kbps
*Size: 45MB

Tracklist:
01. Anthem 01:51
02. Shardana (Sea Folk) 03:56
03. Sa Battalla 04:04
04. Back to Homeland 04:47
05. The Doom That Came to Sarnath 04:25
******************************
Total playing time: 19:03

Extended info
Неплохой дебютник. Особенно для макаронников



Technical info
(IMG:http://metalarea.org/images/spectrogram/2019_Feb/05d2530d46d53480dbb05457a3ac032c.png)
Input File: 02 Shardana (Sea Folk).mp3
Channels : 2
Sample Rate : 44100
Precision : 16-bit
Duration : 00:03:57.00 = 10451700 samples = 17775 CDDA sectors
File Size : 9.79M
Bit Rate : 331k
Sample Encoding: MPEG audio (layer I, II or III)
Comments :
Title=Shardana (Sea Folk)
Artist=Shardana
Album=Shardana
Tracknumber=2
Year=2010



Register


Go to the top of the page
  Insert nick Quick quote
+Quote Post
 
Start new topic
Replies (1 - 5)
post Feb 15 2019, 14:40:32
Post #2

Join my religion, or die
**************
Group: Металариец
Posts: 10,929
Releases: 1635
From: Питера
On Forums: 11 years 6 months
Thanks: 21570 time(s)
Russian Federation


Сейчас исправлю. Зарелизился... (IMG:style_emoticons/default/15.gif)

Поправил.


Thanks:
Go to the top of the page
  Insert nick Quick quote
+Quote Post
post Feb 15 2019, 14:49:46
Post #3

Правь статус, ####!111
**************
Group: Металариец
Posts: 48,637
Releases: 811
On Forums: 11 years 10 months
Thanks: 42819 time(s)
Russian Federation


ЦИТАТА(slack @ Feb 15 2019, 17:40:32) *
Сейчас исправлю. Зарелизился... (IMG:style_emoticons/default/15.gif)

Поравил.


Но буковицу то все таки пропустил в слове поПравил (IMG:style_emoticons/default/1488.gif)

Фолк и трэш же абсолютно не сочетаемы.


Thanks:
(1) slack,
Go to the top of the page
  Insert nick Quick quote
+Quote Post
post Feb 15 2019, 14:57:33
Post #4

Join my religion, or die
**************
Group: Металариец
Posts: 10,929
Releases: 1635
From: Питера
On Forums: 11 years 6 months
Thanks: 21570 time(s)
Russian Federation


Теперь устраивает? (IMG:style_emoticons/default/15.gif)
Go to the top of the page
  Insert nick Quick quote
+Quote Post
post Feb 15 2019, 14:59:02
Post #5

Правь статус, ####!111
**************
Group: Металариец
Posts: 48,637
Releases: 811
On Forums: 11 years 10 months
Thanks: 42819 time(s)
Russian Federation


Давай зачётку (IMG:style_emoticons/default/gop_spb.gif)
Go to the top of the page
  Insert nick Quick quote
+Quote Post
post Feb 16 2019, 08:50:47
Post #6

Dr.
**************
Group: Металариец
Posts: 5,331
Releases: 0
From: Primorye.ru
On Forums: 10 years 3 weeks
Thanks: 1107 time(s)
Russian Federation




Thanks:
Go to the top of the page
  Insert nick Quick quote
+Quote Post

Reply to this topicStart new topic
2 User(s) are reading this topic (2 Guests and 0 Anonymous Users)
0 Members:

 



- Lo-Fi Version Support form
Copyrights and abuse reports form
Time is now: 18th April 2021 - 00:08:21