Welcome Guest ( Log In | Register )

> И неформату есть предел.

Рэп/хип-хоп/шансон/поп удаляются. Для них есть свои порталы.

> Hexvessel - All Tree (2019), Psychedelic Neofolk (D5)
post Feb 15 2019, 11:07:27
Post #1

Четыре Литра
****
Group: Металариец
Posts: 328
Releases: 122
From: Helvetia
On Forums: 7 years 3 weeks
Thanks: 2169 time(s)
Switzerland


(IMG:https://metalarea.org/images/audiocovers/2019_Feb/acov_tid317657_thumb.jpg)

*Artist: Hexvessel
*Album: All Tree
*Year: 2019
*Genre: Psychedelic Neofolk
*Country: Finland (IMG:https://metalarea.org/forum/style_images/flags/Finland.png)
*Format: mp3@CBR320kbps
*Size: 107MB

Tracklist:
1. Blessing 0:24
2. Son of the Sky 4:57
3. Old Tree 3:30
4. Changeling 4:05
5. Ancient Astronaut 3:34
6. Visions of A.O.S. 1:45
7. A Sylvan Sign 6:27
8. Wilderness Spirit 4:20
9. Otherworld Envoy 3:11
10. Birthmark 4:30
11. Journey to Carnac 2:01
12. Liminal Night 3:34
13. Closing Circles 3:41
******************************
Total playing time: 45:59



(IMG:https://metalarea.org/images/youtube.png)

Technical info
(IMG:https://metalarea.org/images/spectrogram/2019_Feb/a345a715c5bbc1ccc08799d0d6128072.png)
Input File: 09 - Otherworld Envoy.mp3
Channels : 2
Sample Rate : 44100
Precision : 16-bit
Duration : 00:03:11.54 = 8447046 samples = 14365.7 CDDA sectors
File Size : 7.84M
Bit Rate : 327k
Sample Encoding: MPEG audio (layer I, II or III)
Comments :
Title=Otherworld Envoy
Artist=Hexvessel
Album=All Tree
Tracknumber=9/13
Year=2019
Genre=Psychedelic NeoFolk
Discnumber=1/1



Register


Go to the top of the page
  Insert nick Quick quote
+Quote Post
 
Start new topic
Replies (1 - 6)
post Feb 15 2019, 13:25:55
Post #2

Правь статус, ####!111
**************
Group: Металариец
Posts: 45,139
Releases: 695
On Forums: 10 years 8 months
Thanks: 36913 time(s)
Russian Federation


@320

Register



Go to the top of the page
  Insert nick Quick quote
+Quote Post
post Feb 15 2019, 13:39:07
Post #3

Четыре Литра
****
Group: Металариец
Posts: 356
Releases: 19
On Forums: 10 years 11 months
Thanks: 424 time(s)
United Kingdom


К сожалению чуда не произошло, — предыдущий альбом на голову сильнее да и в целом — Эверест дискографии группы.
Если кто не слушал, очень рекомендую.

Hexvessel - When We Are Death (2016)


Thanks:
Go to the top of the page
  Insert nick Quick quote
+Quote Post
post Feb 16 2019, 21:35:14
Post #4

Кожаный ублюдок
**************
Group: Металариец
Posts: 3,106
Releases: 6
From: Алчевск (early) Некросибирск (now)
On Forums: 10 years 9 months
Thanks: 1892 time(s)
Russian Federation


Go to the top of the page
  Insert nick Quick quote
+Quote Post
post Feb 24 2019, 23:23:04
Post #5

Два Литра
**
Group: Завсегдатай
Posts: 164
Releases: 0
From: Odessa
On Forums: 12 years 1 month
Thanks: 35 time(s)
Ukraine


ЦИТАТА(Whitefish @ Feb 15 2019, 14:39:07) *
К сожалению чуда не произошло, — предыдущий альбом на голову сильнее да и в целом — Эверест дискографии группы.
Если кто не слушал, очень рекомендую.

Hexvessel - When We Are Death (2016)

Да, пластинка 2016 года у них была зачетная, часто переслушиваю, гипнотическая музыка. С опаской начал слушать новый альбом..
Go to the top of the page
  Insert nick Quick quote
+Quote Post
post Apr 20 2019, 16:27:25
Post #6

Литр
*
Group: Подсевший
Posts: 73
Releases: 0
On Forums: 10 years 11 months
Thanks: 6 time(s)
Russian Federation


Does someone have North American bonus song Summer fires?
Go to the top of the page
  Insert nick Quick quote
+Quote Post
post Jan 22 2020, 10:31:08
Post #7

FOLK METAL FEVER
**************
Group: Металариец
Posts: 2,043
Releases: 6
From: Kyiv
On Forums: 12 years 3 months
Thanks: 270 time(s)
Ukraine


Душевный альбом! Качество!
Go to the top of the page
  Insert nick Quick quote
+Quote Post

Reply to this topicStart new topic
1 User(s) are reading this topic (1 Guests and 0 Anonymous Users)
0 Members:

 



- Lo-Fi Version Support form
Copyrights and abuse reports form
Time is now: 29th February 2020 - 03:59:29