Welcome Guest ( Log In | Register )

> Violence System - Gehenna (2019), Symphonic/Melodic Death Metal
post Feb 16 2019, 16:06:34
Post #1

Аннигилятор пивА
Group Icon
Group: V.I.P
Posts: 52,360
Releases: 16550
From: Koenigsberg - TILZIT
On Forums: 13 years 11 months
Thanks: 365237 time(s)
Russian Federation


(IMG:https://metalarea.org/images/audiocovers/2019_Feb/acov_tid317724_thumb.jpg)

*Artist: Violence System
*Album: Gehenna
*Year: 2019
*Genre: Symphonic/Melodic Death Metal
*Country: United States (IMG:https://metalarea.org/forum/style_images/flags/United%20States.png)
*Format: mp3@CBR320kbps
*Size: 92MB

Tracklist:
01. The Coldest Embrace
02. Slaves To Bloodshed
03. Wolves In The Herd
04. Crown Of Ashes
05. Humasite
06. Exorcyst
07. Gehenna
08. Reverent Decay (feat. Jimmy Mendoza)
09. The Year Of The Crow
******************************
Total playing time: 39:38




Extended info
John Dernar - Vocals
Joshua Curl - Guitars/Vocals
Brian Sawyer - Guitars
Harry Alvarez - Bass
Kendrick Van Deusen - Drums



Technical info
(IMG:https://metalarea.org/images/spectrogram/2019_Feb/5502811b4872d7a1458b124d520be55b.png)
Input File: 02 - Slaves to Bloodshed.mp3
Channels : 2
Sample Rate : 44100
Precision : 16-bit
Duration : 00:03:49.97 = 10141589 samples = 17247.6 CDDA sectors
File Size : 9.33M
Bit Rate : 325k
Sample Encoding: MPEG audio (layer I, II or III)
Comments :
Title=Slaves to Bloodshed
Artist=Violence System
Album=Gehenna
Tracknumber=2
Year=2019



Register


Go to the top of the page
  Insert nick Quick quote
+Quote Post
 
Start new topic
Replies (1 - 5)
post Feb 16 2019, 20:03:49
Post #2

Аннигилятор пивА
Group Icon
Group: V.I.P
Posts: 52,360
Releases: 16550
From: Koenigsberg - TILZIT
On Forums: 13 years 11 months
Thanks: 365237 time(s)
Russian Federation


mirror
Register




Thanks:
(1) AHBAnep,
Go to the top of the page
  Insert nick Quick quote
+Quote Post
post Feb 27 2019, 17:11:24
Post #3

Шесть Литров
******
Group: Металариец
Posts: 605
Releases: 5
From: Ивантеевка, Московская область
On Forums: 12 years 5 months
Thanks: 215 time(s)
Russian Federation


Есть что то в этом альбоме. Третий день его кручу без остановки. И вот не могу сказать, чтоб прям офигеть как понравилось, но зацепило и не отпускает. (IMG:style_emoticons/default/20.gif)


Thanks:
(1) SnaP,
Go to the top of the page
  Insert nick Quick quote
+Quote Post
post Feb 28 2019, 21:40:25
Post #4

MDMщик
**************
Group: Металариец
Posts: 6,094
Releases: 386
From: Asgaard
On Forums: 14 years 5 months
Thanks: 6008 time(s)
Saint Pierre and Miquelon


Альбом весьма неплох
Go to the top of the page
  Insert nick Quick quote
+Quote Post
post Feb 28 2019, 21:55:14
Post #5

MDM-Thrash Metal
**************
Group: Металариец
Posts: 9,511
Releases: 861
From: Одесса
On Forums: 12 years 9 months
Thanks: 22560 time(s)
Ukraine


О, пропажа в лице Сергея!
Go to the top of the page
  Insert nick Quick quote
+Quote Post
post Mar 8 2019, 05:02:46
Post #6

Ъ
**************
Group: Металариец
Posts: 10,044
Releases: 9
On Forums: 11 years 4 months
Thanks: 2016 time(s)
Sweden


На раз послушать можно, вместо симфоник надо поставить модерн.
Go to the top of the page
  Insert nick Quick quote
+Quote Post

Reply to this topicStart new topic
2 User(s) are reading this topic (2 Guests and 0 Anonymous Users)
0 Members:

 



- Lo-Fi Version Support form
Copyrights and abuse reports form
Time is now: 26th May 2020 - 14:19:56