Welcome Guest ( Log In | Register )

> Korpiklaani - Beer Beer [single] (2019), Folk Metal (D)
post Feb 17 2019, 18:54:59
Post #1

Аннигилятор пивА
Group Icon
Group: V.I.P
Posts: 52,358
Releases: 16557
From: Koenigsberg - TILZIT
On Forums: 13 years 3 months
Thanks: 362214 time(s)
Russian Federation


(IMG:https://metalarea.org/images/audiocovers/2019_Feb/acov_tid317774_thumb.jpg)

*Artist: Korpiklaani
*Album: Beer Beer [single]
*Year: 2019
*Genre: Folk Metal
*Country: Finland (IMG:https://metalarea.org/forum/style_images/flags/Finland.png)
*Format: mp3@CBR320kbps
*Size: 6MB

Tracklist:
1. Beer Beer 02:35
******************************
Total playing time: 2:35

Preview 1

Extended info


Technical info
(IMG:https://metalarea.org/images/spectrogram/2019_Feb/b62077ab3d63f31c4266e9ec5745dcbc.png)
Input File: 1. Beer Beer feat. Chris.mp3
Channels : 2
Sample Rate : 44100
Precision : 16-bit
Duration : 00:02:35.94 = 6876778 samples = 11695.2 CDDA sectors
File Size : 6.36M
Bit Rate : 326k
Sample Encoding: MPEG audio (layer I, II or III)
Comments :
Title=Beer Beer feat. Chris from Alestorm
Artist=Korpiklaani
Album=Beer Beer
Tracknumber=1
Year=2019



Register


Go to the top of the page
  Insert nick Quick quote
+Quote Post
 
Start new topic
Replies (1 - 5)
post Feb 18 2019, 09:08:58
Post #2

Шесть Литров
******
Group: Металариец
Posts: 534
Releases: 5
From: Ивантеевка, Московская область
On Forums: 11 years 8 months
Thanks: 171 time(s)
Russian Federation


Такое впечатление, что я это где то слышал раньше. (IMG:style_emoticons/default/hmm.gif)
Go to the top of the page
  Insert nick Quick quote
+Quote Post
post Feb 18 2019, 12:53:49
Post #3

Восемь Литров
********
Group: Металариец
Posts: 897
Releases: 0
From: Харьков
On Forums: 11 years 6 months
Thanks: 691 time(s)
Ukraine


ЦИТАТА(Ice Gnoll @ Feb 18 2019, 10:08:58) *
Такое впечатление, что я это где то слышал раньше. (IMG:style_emoticons/default/hmm.gif)

В 2006 году? (IMG:style_emoticons/default/1488.gif)


Thanks:
(1) Ice Gnoll,
Go to the top of the page
  Insert nick Quick quote
+Quote Post
post Feb 18 2019, 13:17:47
Post #4

Аннигилятор пивА
Group Icon
Group: V.I.P
Posts: 52,358
Releases: 16557
From: Koenigsberg - TILZIT
On Forums: 13 years 3 months
Thanks: 362214 time(s)
Russian Federation


ЦИТАТА(Ice Gnoll @ Feb 18 2019, 08:08:58) *
Такое впечатление, что я это где то слышал раньше. (IMG:style_emoticons/default/hmm.gif)

дополнительный диск выпущен специально для тура 2019 года, состоит из одного классического трэка сыгранного в 14 вариантах, в стиле и с участием приглашенных гостей на вокалах (в том числе на языке страны групп)


Thanks:
(1) Ice Gnoll,
Go to the top of the page
  Insert nick Quick quote
+Quote Post
post Feb 18 2019, 14:19:26
Post #5

Шесть Литров
******
Group: Металариец
Posts: 534
Releases: 5
From: Ивантеевка, Московская область
On Forums: 11 years 8 months
Thanks: 171 time(s)
Russian Federation


Nattfodd, aesteticvice, Спасибки, а я уж было подумал, что кукушка окончательно покинула мой старый чердак. (IMG:style_emoticons/default/fear.gif)
Go to the top of the page
  Insert nick Quick quote
+Quote Post
post May 23 2019, 02:36:24
Post #6

Group: Дух
Posts: 3
Releases: 0
On Forums: 3 months 3 weeks
Thanks: 0 time(s)
Russian Federation


Thanks, mate!)
Go to the top of the page
  Insert nick Quick quote
+Quote Post

Reply to this topicStart new topic
2 User(s) are reading this topic (2 Guests and 0 Anonymous Users)
0 Members:

 



- Lo-Fi Version Support form
Copyrights and abuse reports form
Time is now: 16th September 2019 - 01:24:01