Welcome Guest ( Log In | Register )

> Evil Conspiracy - Evil Comes (2019), Power Metal
post Feb 18 2019, 13:38:02
Post #1

Serial Uploader
Group Icon
Group: V.I.P
Posts: 37,532
Releases: 35706
From: Lithuania
On Forums: 12 years 10 months
Thanks: 431418 time(s)
Lithuania


(IMG:https://metalarea.org/images/audiocovers/2019_Feb/acov_tid317806_thumb.jpg)

*Artist: Evil Conspiracy
*Album: Evil Comes
*Year: 2019
*Genre: Power Metal
*Country: Sweden (IMG:https://metalarea.org/forum/style_images/flags/Sweden.png)
*Format: mp3@CBR320kbps
*Size: 117MB

Tracklist:
1. Dogs of War 03:58
2. When Evil Comes to Town 05:50
3. We Rise 04:20
4. Demons on Speed 05:01
5. Endless Darkness 06:11
6. Golgatha 05:15
7. Pagan Curse 03:42
8. Violent Intent 03:37
9. Resurrection 06:08
10. Down to the Lord 06:22
******************************
Total playing time: 50:24

(IMG:https://metalarea.org/images/myspace.png)


Technical info
(IMG:https://metalarea.org/images/spectrogram/2019_Feb/de1be232163cd86393f29c6299fa550a.png)
Input File: 2 - When Evil Comes to Town.mp3
Channels : 2
Sample Rate : 44100
Precision : 16-bit
Duration : 00:05:50.82 = 15471030 samples = 26311.3 CDDA sectors
File Size : 14.2M
Bit Rate : 323k
Sample Encoding: MPEG audio (layer I, II or III)
Comments :
Title=When Evil Comes to Town
Artist=Evil Conspiracy
Album=Evil Comes
Tracknumber=2
Year=2019
Genre=Rock/Hard Rock/Metal
Discnumber=1



Register


Go to the top of the page
  Insert nick Quick quote
+Quote Post
 
Start new topic
Replies (1 - 8)
post Feb 18 2019, 16:45:14
Post #2

Два Литра
**
Group: Завсегдатай
Posts: 151
Releases: 0
On Forums: 13 years 3 months
Thanks: 17 time(s)
Russian Federation


https://www.youtube.com/watch?v=0suu4PNYlL8


Thanks:
(1) DenisKov,
Go to the top of the page
  Insert nick Quick quote
+Quote Post
post Feb 18 2019, 17:00:47
Post #3

Добрый
**************
Group: Металариец
Posts: 4,759
Releases: 0
On Forums: 2 years 9 months
Thanks: 11645 time(s)
Russian Federation


118 mb/320 kbps
Register


Thanks:
(1) artscald,
Go to the top of the page
  Insert nick Quick quote
+Quote Post
post Feb 18 2019, 17:27:30
Post #4

21st Century Schizoid Man
**************
Group: Металариец
Posts: 6,774
Releases: 82
From: Moscow
On Forums: 12 years 11 months
Thanks: 5697 time(s)
Russian Federation


В превью суровый пауэр/трэш, слегонца напоминающий Accept в 90-х годах.
Go to the top of the page
  Insert nick Quick quote
+Quote Post
post Feb 18 2019, 18:19:56
Post #5

Common dweller of hell
**************
Group: Металариец
Posts: 3,681
Releases: 12
From: Dnipro
On Forums: 12 years 9 months
Thanks: 1441 time(s)
Ukraine


ЦИТАТА(Yarri @ Feb 18 2019, 18:27:30) *
В превью суровый пауэр/трэш, слегонца напоминающий Accept в 90-х годах.

трэша абсолютно нет (IMG:style_emoticons/default/23.gif)
Go to the top of the page
  Insert nick Quick quote
+Quote Post
post Feb 18 2019, 18:32:31
Post #6

21st Century Schizoid Man
**************
Group: Металариец
Posts: 6,774
Releases: 82
From: Moscow
On Forums: 12 years 11 months
Thanks: 5697 time(s)
Russian Federation


ЦИТАТА(isvili @ Feb 18 2019, 20:19:56) *
трэша абсолютно нет (IMG:style_emoticons/default/23.gif)

Я говорю про пауэр/трэш. Он и не пауэр, и не трэш.
Go to the top of the page
  Insert nick Quick quote
+Quote Post
post Feb 19 2019, 15:38:13
Post #7

Common dweller of hell
**************
Group: Металариец
Posts: 3,681
Releases: 12
From: Dnipro
On Forums: 12 years 9 months
Thanks: 1441 time(s)
Ukraine


ЦИТАТА(Yarri @ Feb 18 2019, 19:32:31) *
Я говорю про пауэр/трэш. Он и не пауэр, и не трэш.
А кто же он тогда этот трэш, если он не трэш (IMG:style_emoticons/default/hmm.gif) По моему тут чистейшей воды, так называемый тефтонский хэви.
Go to the top of the page
  Insert nick Quick quote
+Quote Post
post Feb 23 2019, 19:37:42
Post #8

Перевозчик
**************
Group: Металариец
Posts: 3,250
Releases: 0
On Forums: 12 years 9 months
Thanks: 729 time(s)
Russian Federation


Обычный хэви. Павера и близко нет.

Go to the top of the page
  Insert nick Quick quote
+Quote Post
post Mar 6 2019, 16:21:05
Post #9

Ъ
**************
Group: Металариец
Posts: 10,573
Releases: 9
On Forums: 12 years 3 months
Thanks: 2161 time(s)
Sweden


ЦИТАТА(kiol1 @ Feb 18 2019, 22:45:14) *


Металвориорс прям (IMG:style_emoticons/default/1488.gif) По музыке - ничего хорошего.
Go to the top of the page
  Insert nick Quick quote
+Quote Post

Reply to this topicStart new topic
2 User(s) are reading this topic (2 Guests and 0 Anonymous Users)
0 Members:

 



- Lo-Fi Version Support form
Copyrights and abuse reports form
Time is now: 21st April 2021 - 15:07:59