Welcome Guest ( Log In | Register )

> Deadlife - Monotonous Sounds Of Sadness (2019), Depressive Black Metal (D)
post Feb 19 2019, 16:41:33
Post #1

Serial Uploader
Group Icon
Group: V.I.P
Posts: 37,112
Releases: 35296
From: Lithuania
On Forums: 11 years 9 months
Thanks: 418227 time(s)
Lithuania


(IMG:https://metalarea.org/images/audiocovers/2019_Feb/acov_tid317867_thumb.jpg)

*Artist: Deadlife
*Album: Monotonous Sounds Of Sadness
*Year: 2019
*Genre: Depressive Black Metal
*Country: Sweden (IMG:https://metalarea.org/forum/style_images/flags/Sweden.png)
*Format: mp3@CBR320kbps
*Size: 119MB

Tracklist:
1. Another Rainy Day 08:51
2. Summer Suicide 08:26
3. Hollow 05:04
4. Completely Dead Inside 06:31
5. A New Kind of Sorrow 05:13
6. The Chronicles of Pain II 03:24
7. A Final Moment 06:33
8. Desperate Screams 08:09
******************************
Total playing time: 52:11



(IMG:https://metalarea.org/images/youtube.png)

Technical info
(IMG:https://metalarea.org/images/spectrogram/2019_Feb/f2585a709162b733f0b72bfddd5bdf00.png)
Input File: 02 - Summer Suicide.mp3
Channels : 2
Sample Rate : 44100
Precision : 16-bit
Duration : 00:08:26.15 = 22321215 samples = 37961.2 CDDA sectors
File Size : 20.3M
Bit Rate : 322k
Sample Encoding: MPEG audio (layer I, II or III)
Comments :
Title=Summer Suicide
Artist=Deadlife
Album=Monotonous Sounds of Sadness
Tracknumber=2
Year=2019



Register


Go to the top of the page
  Insert nick Quick quote
+Quote Post
 
Start new topic
Replies (1 - 3)
post Jul 13 2019, 06:37:23
Post #2

Group: Дух
Posts: 7
Releases: 0
On Forums: 6 years 1 month
Thanks: 4 time(s)
Ukraine


Will someone please re-upload this.

Thank you.
Go to the top of the page
  Insert nick Quick quote
+Quote Post
post Jul 13 2019, 07:01:08
Post #3

Правь статус, ####!111
**************
Group: Металариец
Posts: 3,157
Releases: 36
On Forums: 2 years 5 months
Thanks: 7295 time(s)
Unknown


Register


Go to the top of the page
  Insert nick Quick quote
+Quote Post
post Jul 13 2019, 19:07:08
Post #4

Group: Дух
Posts: 7
Releases: 0
On Forums: 6 years 1 month
Thanks: 4 time(s)
Ukraine


Wow, that was fast. Thank you very much.
Go to the top of the page
  Insert nick Quick quote
+Quote Post

Reply to this topicStart new topic
1 User(s) are reading this topic (1 Guests and 0 Anonymous Users)
0 Members:

 



- Lo-Fi Version Support form
Copyrights and abuse reports form
Time is now: 6th April 2020 - 06:58:02