Welcome Guest ( Log In | Register )

> Dreamlongdead - Umbra [ep] (2018), Old School Death/Doom Metal (D5)
post Feb 20 2019, 10:26:18
Post #1

Аннигилятор пивА
Group Icon
Group: V.I.P
Posts: 52,360
Releases: 16551
From: Koenigsberg - TILZIT
On Forums: 13 years 8 months
Thanks: 364175 time(s)
Russian Federation


(IMG:https://metalarea.org/images/audiocovers/2019_Feb/acov_tid317895_thumb.jpg)

*Artist: Dreamlongdead
*Album: Umbra [ep]
*Year: 2018
*Genre: Old School Death/Doom Metal
*Country: Greece (IMG:https://metalarea.org/forum/style_images/flags/Greece.png)
*Format: mp3@CBR320kbps
*Size: 62MB

Tracklist:
1. No Grave Deep Enough(The Ballad of a Tall Man) 07:51
2. You gotta be fuckin' kidding 03:19
3. El Ritmo de la Tierra (The Yawning Chasm) 10:56
4. Unveiling the Becoming (Layers of Unreality) 04:40
******************************
Total playing time: 26:46




Extended info
John: Vocals
Tassos: Vocals, Rhythm & Lead Guitars
Panos: Rhythm & Lead Guitars
Leo: Bass
Tolis: Drums

Synthesizers on “You gotta be fuckin' kidding” by Makis Petratos
Additional lead guitar on “No Grave Deep Enough” & harmony guitar on “El Ritmo le la Tierra” by Nikos Papakostas
Additional vocals on “El Ritmo le la Tierra” by Panos

Dialogue excerpts from:
“Phantasm” (1979, New Breed Productions Inc.)
“The Thing” (1982, Universal Pictures, Turman-Foster Company)
“In the Mouth of Madness” (1994, New Line Cinema)


Technical info
(IMG:https://metalarea.org/images/spectrogram/2019_Feb/f25e3e31600dc36cec83f42c64399cd5.png)
Input File: 01. No Grave Deep Enough (The Ballad Of A Tall Man).mp3
Channels : 2
Sample Rate : 44100
Precision : 16-bit
Duration : 00:07:51.33 = 20785653 samples = 35349.8 CDDA sectors
File Size : 18.9M
Bit Rate : 320k
Sample Encoding: MPEG audio (layer I, II or III)
Comments :
Title=No Grave Deep Enough(The Ballad Of A Tall Man)
Artist=DreamLongDead
Album=Umbra
Tracknumber=01
Year=2018
Genre=Death / Doom Metal



Register


Go to the top of the page
  Insert nick Quick quote
+Quote Post
 
Start new topic
Replies (1 - 3)
post Feb 20 2019, 22:23:05
Post #2

Социопат.Маргинал. Мизантроп.Нигилист. Перверзный нарциссист.
**************
Group: Металариец
Posts: 5,564
Releases: 667
From: Город-герой Ленинград
On Forums: 9 years 2 weeks
Thanks: 6305 time(s)
Russian Federation


Сам сабжик позже послушаю,а вот картинка клёвая.
Go to the top of the page
  Insert nick Quick quote
+Quote Post
post Feb 20 2019, 23:03:08
Post #3

Три Литра
***
Group: Завсегдатай
Posts: 247
Releases: 1
On Forums: 10 years 1 week
Thanks: 66 time(s)
Ukraine


Картинка Здислава Бексинского...Великого польского художника современности...и да у него все такие картинки... (IMG:style_emoticons/default/smile3.gif)


Thanks:
Go to the top of the page
  Insert nick Quick quote
+Quote Post
post Feb 21 2019, 07:25:21
Post #4

Наливай!
**************
Group: Металариец
Posts: 5,566
Releases: 27
From: Москва-Бибирево
On Forums: 11 years 11 months
Thanks: 2740 time(s)
Russian Federation


Go to the top of the page
  Insert nick Quick quote
+Quote Post

Reply to this topicStart new topic
2 User(s) are reading this topic (2 Guests and 0 Anonymous Users)
0 Members:

 



- Lo-Fi Version Support form
Copyrights and abuse reports form
Time is now: 22nd February 2020 - 07:39:46