Welcome Guest ( Log In | Register )

> Rhapsody Of Fire - The Eighth Mountain (2019), Symphonic Power Metal
post Feb 21 2019, 11:05:17
Post #1

Аннигилятор пивА
Group Icon
Group: V.I.P
Posts: 52,360
Releases: 16550
From: Koenigsberg - TILZIT
On Forums: 13 years 10 months
Thanks: 364637 time(s)
Russian Federation


(IMG:https://metalarea.org/images/audiocovers/2019_Feb/acov_tid317940_thumb.jpg)

*Artist: Rhapsody Of Fire
*Album: The Eighth Mountain
*Year: 2019
*Genre: Symphonic Power Metal
*Country: Italy (IMG:https://metalarea.org/forum/style_images/flags/Italy.png)
*Format: mp3@CBR320kbps
*Size: 149MB

Tracklist:
01. Abyss of Pain 00:48
02. Seven Heroic Deeds 04:47
03. Master of Peace 05:31
04. Rain of Fury 04:09
05. White Wizard 04:56
06. Warrior Heart 04:29
07. The Courage to Forgive 04:54
08. March Against the Tyrant 09:22
09. Clash of Times 04:41
10. The Legend Goes On 04:33
11. The Wind, the Rain and the Moon 05:22
12. Tales of a Hero's Fate 10:47
******************************
Total playing time: 1:04:19



Extended info
Alex Staropoli - Keyboards, Piano, Harpsichord, Orchestrations, Vocals (choirs) (1995-present) See also: ex-Thundercross
Roberto De Micheli - Guitars (2011-present) See also: Sinestesia, ex-Steel Crown, ex-Thundercross
Alessandro Sala - Bass (2015-present) See also: Sinestesia
Manuel Lotter - Drums (2016-present) See also: ex-Farewell to Arms, The Bellerophon Project, ex-Emil Bulls
Giacomo Voli - Vocals (2016-present) See also: ex-Sour Whine, Giacomo Voli, ex-Teodasia




Technical info
(IMG:https://metalarea.org/images/spectrogram/2019_Feb/501dd1e744862a514e19329d62cd5fc2.png)
Input File: 10 - The Legend Goes On.mp3
Channels : 2
Sample Rate : 44100
Precision : 16-bit
Duration : 00:04:45.66 = 12597782 samples = 21424.8 CDDA sectors
File Size : 11.5M
Bit Rate : 323k
Sample Encoding: MPEG audio (layer I, II or III)
Comments :
Title=The Legend Goes On
Artist=Rhapsody of Fire
Album=The Eighth Mountain
Tracknumber=10
Year=2019
Genre=Rock/Hard Rock/Metal
Discnumber=1



Register


Go to the top of the page
  Insert nick Quick quote
+Quote Post
2 Pages V  < 1 2  
Start new topic
Replies (30 - 36)
post May 7 2019, 20:58:11
Post #31

Правь статус, ####!111
**************
Group: Металариец
Posts: 3,231
Releases: 1
From: Рейх
On Forums: 13 years 7 months
Thanks: 890 time(s)
Ukraine


крутейший альбом почти все песни понравились. Я не сильно помню предыдущие альбомы а исключением классических, но этот безобразно хорош в своем стиле
Go to the top of the page
  Insert nick Quick quote
+Quote Post
post May 8 2019, 01:18:05
Post #32

Правь статус, ####!111
**************
Group: Металариец
Posts: 2,430
Releases: 34
From: Nakhodka
On Forums: 9 years 9 months
Thanks: 2151 time(s)
Russian Federation


Register
Go to the top of the page
  Insert nick Quick quote
+Quote Post
post Aug 5 2019, 12:14:49
Post #33

Добрый
**************
Group: Металариец
Posts: 3,386
Releases: 0
On Forums: 1 year 8 months
Thanks: 4824 time(s)
Russian Federation


150 mb/320 kbps
Register
Go to the top of the page
  Insert nick Quick quote
+Quote Post
post Aug 29 2019, 20:38:22
Post #34

Шесть Литров
******
Group: Металариец
Posts: 690
Releases: 4
From: Екатеринбург
On Forums: 12 years 5 months
Thanks: 554 time(s)
Russian Federation


Отличнейший альбом - back to the 90s. Почти все песни - ТОП.


Thanks:
(1) Exorcist,
Go to the top of the page
  Insert nick Quick quote
+Quote Post
post Aug 29 2019, 20:51:12
Post #35

Правь статус, ####!111
**************
Group: Металариец
Posts: 4,857
Releases: 0
From: Киев
On Forums: 11 years 11 months
Thanks: 3825 time(s)
Ukraine


Пипец, ребята, ну вы и всеядные, такую школотскую сpань ещё и "спасибить".

Я про пост #34 от Адептуса, если что.

А альбом очень крут.


Thanks:
Go to the top of the page
  Insert nick Quick quote
+Quote Post
post Aug 29 2019, 22:36:46
Post #36

Ледоруб
**************
Group: Металариец
Posts: 24,414
Releases: 0
From: Санкт-Петербург
On Forums: 10 years 6 months
Thanks: 8376 time(s)
Russian Federation


ЦИТАТА(Exorcist @ 29th August 2019 - 22:51:12) *
Пипец, ребята, ну вы и всеядные, такую школотскую сpань ещё и "спасибить".

Ну так школота и проспасибила.


Go to the top of the page
  Insert nick Quick quote
+Quote Post
post Sep 17 2019, 23:01:25
Post #37

FOLK METAL FEVER
**************
Group: Металариец
Posts: 2,051
Releases: 6
From: Kyiv
On Forums: 12 years 4 months
Thanks: 271 time(s)
Ukraine


Альбом для одноразового ознакомления.
Go to the top of the page
  Insert nick Quick quote
+Quote Post

2 Pages V  < 1 2
Reply to this topicStart new topic
2 User(s) are reading this topic (2 Guests and 0 Anonymous Users)
0 Members:

 



- Lo-Fi Version Support form
Copyrights and abuse reports form
Time is now: 31st March 2020 - 16:20:31