Welcome Guest ( Log In | Register )

> Demon Head - Hellfire Ocean Void (2019), Doom Metal/Hard Rock
post Feb 22 2019, 15:48:24
Post #1

Каждое ваше "Спасибо" помогает мне понять, что я делаю новости не напрасно.
**************
Group: Металариец
Posts: 2,340
Releases: 2064
From: Одесса
On Forums: 11 years 8 months
Thanks: 18793 time(s)
Ukraine


(IMG:http://metalarea.org/images/audiocovers/2019_Feb/acov_tid318033_thumb.jpg)

*Artist: Demon Head
*Album: Hellfire Ocean Void
*Year: 2019
*Genre: Doom Metal/Hard Rock
*Country: Denmark (IMG:http://metalarea.org/forum/style_images/flags/Denmark.png)
*Format: mp3@CBR320kbps
*Size: 94MB

Tracklist:
1. Rumours 01:25
2. The Night Is Yours 04:31
3. A Flaming Sea 03:29
4. In the Hour of the Wolf 06:58
5. Labyrinth 03:40
6. Strange Eggs 04:22
7. Death's Solitude 07:02
8. Mercury & Sulphur 08:29
******************************
Total playing time: 39:56



Extended info
Line - up:

Jeppe Wittus - Drums
Ferreira Larsen - Vocals (Alucarda, ex-Scavenger Brats)
Fuglsang - Bass
Gjerlufsen Nielsen - Guitars
Gjerluff Nielsen - Guitars

(IMG:https://www.metal-archives.com/images/3/5/4/0/3540377276_photo.jpg?5128)


Technical info
(IMG:http://metalarea.org/images/spectrogram/2019_Feb/3da753596c75046fa150e11999447f2c.png)
Input File: 06 Strange Eggs.mp3
Channels : 2
Sample Rate : 44100
Precision : 16-bit
Duration : 00:07:02.48 = 18631280 samples = 31685.9 CDDA sectors
File Size : 16.9M
Bit Rate : 320k
Sample Encoding: MPEG audio (layer I, II or III)
Comments :
Title=Strange Eggs
Artist=Demon Head
Album=Hellfire Ocean Void
Tracknumber=6
Year=2019
Genre=Doom Metal / Hard Rock



Register


Go to the top of the page
  Insert nick Quick quote
+Quote Post
 
Start new topic
Replies (1 - 6)
post Feb 23 2019, 04:18:48
Post #2

Восемь Литров
********
Group: Металариец
Posts: 847
Releases: 0
From: China
On Forums: 12 years 1 month
Thanks: 592 time(s)
Bulgaria


dark gothic rock mixed with doom; good depressing stuff with echoes of Danzig and Fields of the Nefilim
Go to the top of the page
  Insert nick Quick quote
+Quote Post
post Feb 23 2019, 15:03:50
Post #3

Это просто место… где все подошло к концу.
**************
Group: Металариец
Posts: 5,722
Releases: 0
From: Страны Мамонтов
On Forums: 13 years 18 hours
Thanks: 2094 time(s)
Antarctica


Такой себе Danzig из параллельной вселенной
Go to the top of the page
  Insert nick Quick quote
+Quote Post
post Feb 23 2019, 15:05:56
Post #4

И Ван Дамм По Делам Вашим!
**************
Group: Металариец
Posts: 18,357
Releases: 26
On Forums: 11 years 7 months
Thanks: 10046 time(s)
Honduras


ЦИТАТА(avather @ Feb 23 2019, 16:03:50) *
Такой себе Danzig из параллельной вселенной

почему из параллельной , из Дании же. (IMG:style_emoticons/default/1488.gif)
Go to the top of the page
  Insert nick Quick quote
+Quote Post
post Mar 7 2019, 16:54:00
Post #5

Два Литра
**
Group: Завсегдатай
Posts: 121
Releases: 10
From: Москва
On Forums: 13 years 1 month
Thanks: 768 time(s)
Russian Federation


Треки 2-4 прям очень сильно порадовали, остальное по-унылее.
Go to the top of the page
  Insert nick Quick quote
+Quote Post
post Feb 14 2020, 05:49:42
Post #6

Правь статус, ####!111
**************
Group: Металариец
Posts: 3,196
Releases: 1
From: Рейх
On Forums: 13 years 6 months
Thanks: 879 time(s)
Ukraine


можно обновить
Go to the top of the page
  Insert nick Quick quote
+Quote Post
post Feb 14 2020, 08:39:40
Post #7

Добрый
**************
Group: Металариец
Posts: 3,239
Releases: 0
On Forums: 1 year 7 months
Thanks: 4147 time(s)
Russian Federation


83 mb/320 kbps
Register


Thanks:
(1) smes,
Go to the top of the page
  Insert nick Quick quote
+Quote Post

Reply to this topicStart new topic
2 User(s) are reading this topic (2 Guests and 0 Anonymous Users)
0 Members:

 



- Lo-Fi Version Support form
Copyrights and abuse reports form
Time is now: 20th February 2020 - 00:06:35