Welcome Guest ( Log In | Register )

> Dunkelnacht - Empires Of Mediocracy (2019), Black Metal (D6)
post Feb 27 2019, 12:40:08
Post #1

Serial Uploader
Group Icon
Group: V.I.P
Posts: 35,428
Releases: 33632
From: Lithuania
On Forums: 11 years 1 week
Thanks: 386154 time(s)
Lithuania


(IMG:https://metalarea.org/images/audiocovers/2019_Feb/acov_tid318234_thumb.jpg)

*Artist: Dunkelnacht
*Album: Empires Of Mediocracy
*Year: 2019
*Genre: Black Metal
*Country: France (IMG:https://metalarea.org/forum/style_images/flags/France.png)
*Format: mp3@CBR320kbps
*Size: 111MB

Tracklist:
01. Relentless Compendium 04:29
02. Servants 04:56
03. Eerie Horrendous Obsession 06:52
04. Amongst the Remnants of Liberty 07:44
05. Verses and Allegations 04:51
06. Empires of Mediocracy 08:10
07. The Necessary Evil 04:17
08. Non Canimus Surdis 06:20
******************************
Total playing time: 47:39




(IMG:https://metalarea.org/images/youtube.png)

Technical info
(IMG:https://metalarea.org/images/spectrogram/2019_Feb/23e0b6de984379dda623f66184227670.png)
Input File: 2 - Servants.mp3
Channels : 2
Sample Rate : 44100
Precision : 16-bit
Duration : 00:04:56.32 = 13067844 samples = 22224.2 CDDA sectors
File Size : 12.1M
Bit Rate : 327k
Sample Encoding: MPEG audio (layer I, II or III)
Comments :
Title=Servants
Artist=Dunkelnacht
Album=Empires of Mediocracy
Tracknumber=2
Year=2019
Genre=Black Metal
Discnumber=1



Register


Go to the top of the page
  Insert nick Quick quote
+Quote Post
 
Start new topic
Replies (1 - 3)
post Feb 27 2019, 15:20:27
Post #2

Group: Подсевший
Posts: 13
Releases: 0
On Forums: 2 years 11 months
Thanks: 0 time(s)
Russian Federation


Родной город
Lille (France) / Alkmaar (Netherlands)
Go to the top of the page
  Insert nick Quick quote
+Quote Post
post Mar 1 2019, 06:31:11
Post #3

MDM-Thrash Metal
**************
Group: Металариец
Posts: 8,182
Releases: 458
From: Одесса
On Forums: 11 years 10 months
Thanks: 15279 time(s)
Ukraine


Register
Go to the top of the page
  Insert nick Quick quote
+Quote Post
post Mar 2 2019, 19:30:00
Post #4

Правь статус, ####!111
**************
Group: Металариец
Posts: 2,446
Releases: 2
From: Dnipro
On Forums: 10 years 11 months
Thanks: 639 time(s)
Ukraine


Нужно качнуть, что то у них притягательное есть.
Go to the top of the page
  Insert nick Quick quote
+Quote Post

Reply to this topicStart new topic
1 User(s) are reading this topic (1 Guests and 0 Anonymous Users)
0 Members:

 



- Lo-Fi Version Support form
Copyrights and abuse reports form
Time is now: 19th June 2019 - 20:56:07