Welcome Guest ( Log In | Register )

> Tuatha De Danann - The Tribes Of Witching Souls [ep] (2019), Celtic/Folk Metal (D)
post Feb 28 2019, 12:01:30
Post #1

Serial Uploader
Group Icon
Group: V.I.P
Posts: 37,112
Releases: 35296
From: Lithuania
On Forums: 11 years 11 months
Thanks: 419049 time(s)
Lithuania


(IMG:https://metalarea.org/images/audiocovers/2019_Feb/acov_tid318293_thumb.jpg)

*Artist: Tuatha De Danann
*Album: The Tribes Of Witching Souls [ep]
*Year: 2019
*Genre: Celtic/Folk Metal
*Country: Brazil (IMG:https://metalarea.org/forum/style_images/flags/Brazil.png)
*Format: mp3@CBR320kbps
*Size: 67MB

Tracklist:
01. The Tribes of Witching Souls 05:28
02. Turn 04:14
03. Warrior Queen 03:51
04. Your Wall Shall Fall 03:49
05. Conjura 04:44
06. Outcry 04:27
07. Tan Pinga Ra Tan 05:03
******************************
Total playing time: 31:36

(IMG:https://metalarea.org/images/myspace.png)

(IMG:https://metalarea.org/images/youtube.png)

Technical info
(IMG:https://metalarea.org/images/spectrogram/2019_Feb/8bf99ea000d1983c1a96ab2710659529.png)
Input File: 02. Turn.mp3
Channels : 2
Sample Rate : 44100
Precision : 16-bit
Duration : 00:04:14.08 = 11205104 samples = 19056.3 CDDA sectors
File Size : 10.3M
Bit Rate : 323k
Sample Encoding: MPEG audio (layer I, II or III)
Comments :
Title=Turn
Artist=Tuatha De Danann
Album=The Tribes Of Witching Souls (EP)
Tracknumber=2
Year=2019
Genre=Celtic Folk Metal



Register


Go to the top of the page
  Insert nick Quick quote
+Quote Post
 
Start new topic
Replies (1 - 5)
post Feb 28 2019, 14:13:38
Post #2

Шесть Литров
******
Group: Металариец
Posts: 605
Releases: 5
From: Ивантеевка, Московская область
On Forums: 12 years 5 months
Thanks: 215 time(s)
Russian Federation


Мммм! В Бразилии не только дикие обезьяны, а еще и кельты водятся! Интересно!


Go to the top of the page
  Insert nick Quick quote
+Quote Post
post Feb 28 2019, 17:24:11
Post #3

Четыре Литра
****
Group: Металариец
Posts: 361
Releases: 1
From: Загорск
On Forums: 8 years 2 days
Thanks: 121 time(s)
Russian Federation


Этому "коллективу кельтов" уже лет 20, если не больше.
Go to the top of the page
  Insert nick Quick quote
+Quote Post
post Mar 11 2020, 14:56:45
Post #4

Group: Дух
Posts: 5
Releases: 0
From: Омск
On Forums: 2 years 6 months
Thanks: 1 time(s)
Russian Federation


Перезалейте!
Go to the top of the page
  Insert nick Quick quote
+Quote Post
post Mar 11 2020, 15:38:03
Post #5
BAN
Banned till
Jun 3 2020, 18:40:35



Register


Go to the top of the page
  Insert nick Quick quote
+Quote Post
post Mar 12 2020, 08:03:14
Post #6

Group: Дух
Posts: 5
Releases: 0
From: Омск
On Forums: 2 years 6 months
Thanks: 1 time(s)
Russian Federation


INDARKNESS, спасибо !
А альбомец-то нехилый, правда до меня это дошло только через год после его выхода в свет.
Зато щас по кругу гоняю!
Больше остальных радуют песенки Warrior Queen, Conjura, Outcry.
Ну и Tan Pinga Ra Tan очень неплохо переиграли.
Шик-модерн, например!


Thanks:
Go to the top of the page
  Insert nick Quick quote
+Quote Post

Reply to this topicStart new topic
2 User(s) are reading this topic (2 Guests and 0 Anonymous Users)
0 Members:

 



- Lo-Fi Version Support form
Copyrights and abuse reports form
Time is now: 26th May 2020 - 13:41:08