Welcome Guest ( Log In | Register )

> Darkwater - Human (2019), Melodic Power/Progressive Metal
post Feb 28 2019, 12:40:55
Post #1

Serial Uploader
Group Icon
Group: V.I.P
Posts: 35,820
Releases: 34024
From: Lithuania
On Forums: 11 years 2 months
Thanks: 393205 time(s)
Lithuania


(IMG:https://metalarea.org/images/audiocovers/2019_Feb/acov_tid318299_thumb.jpg)

*Artist: Darkwater
*Album: Human
*Year: 2019
*Genre: Melodic Power/Progressive Metal
*Country: Sweden (IMG:https://metalarea.org/forum/style_images/flags/Sweden.png)
*Format: mp3@CBR320kbps
*Size: 178MB

Tracklist:
01. A New Beginning 06:20
02. In Front of You 07:28
03. Alive (Part I) 01:26
04. Alive (Part II) 07:21
05. Reflection of a Mind 11:32
06. Insomnia 06:46
07. The Journey 08:04
08. Burdens 08:15
09. Turning Pages 09:47
10. Light of Dawn 09:09
******************************
Total playing time: 1:16:08

(IMG:https://metalarea.org/images/myspace.png)

(IMG:https://metalarea.org/images/youtube.png)

Technical info
(IMG:https://metalarea.org/images/spectrogram/2019_Feb/1df434ea4423e2e52beec3af10fe97a4.png)
Input File: 02 In Front of You.mp3
Channels : 2
Sample Rate : 44100
Precision : 16-bit
Duration : 00:07:28.44 = 19776292 samples = 33633.1 CDDA sectors
File Size : 18.4M
Bit Rate : 327k
Sample Encoding: MPEG audio (layer I, II or III)
Comments :
Title=In Front of You
Artist=Darkwater
Album=Human
Tracknumber=2/10/10
Year=2019
Genre=Metal
Discnumber=1/1/1



Register


Go to the top of the page
  Insert nick Quick quote
+Quote Post
 
Start new topic
Replies (1 - 7)
post Feb 28 2019, 13:49:07
Post #2

Правь статус, ####!111
**************
Group: Металариец
Posts: 42,322
Releases: 638
On Forums: 10 years 2 months
Thanks: 33167 time(s)
Russian Federation


@320

Register




Go to the top of the page
  Insert nick Quick quote
+Quote Post
post Feb 28 2019, 22:17:27
Post #3

Тридцать лет на борту "Тяжёлого" крейсера
**************
Group: Металариец
Posts: 2,077
Releases: 0
From: Питер
On Forums: 12 years 2 months
Thanks: 518 time(s)
Russian Federation


Ждал альбом, 9 лет ждал
Не зря
Отличный прог, мелодичный, интересный..короче, слушать нужно


Thanks:
(1) Foneg,
Go to the top of the page
  Insert nick Quick quote
+Quote Post
post Mar 1 2019, 08:16:53
Post #4

Маньяк
**********
Group: Металариец
Posts: 1,176
Releases: 0
From: Moscow
On Forums: 11 years 9 months
Thanks: 671 time(s)
Russian Federation


Да, шведы хороши. Местами камелод-камелодом, но раз сам Младокров щас так не могёт, то почему бы и нет.
Go to the top of the page
  Insert nick Quick quote
+Quote Post
post Mar 14 2019, 15:39:36
Post #5

Ъ
**************
Group: Металариец
Posts: 9,632
Releases: 9
On Forums: 10 years 7 months
Thanks: 1876 time(s)
Sweden


Приятный альбом, не могу его назвать отличным из за убитых припевов, в большинстве своем слишком уж приторно сладкие и вместо западания, быстро приедаются своей банальностью. А так, да, сделано все отлично и вокал классный и аранжировки не подкачали. В каждом треке есть очень крутые темы, но тем не менее по указаным выше причинам альбом продержался в плеере только пару дней.


Thanks:
(1) Ghostb,
Go to the top of the page
  Insert nick Quick quote
+Quote Post
post Mar 17 2019, 13:58:03
Post #6

Group: Подсевший
Posts: 37
Releases: 0
From: Гросснойарзг
On Forums: 8 years 9 months
Thanks: 9 time(s)
Russian Federation


Настолько все правильно и благородно, что очень скучно и до зубовного скрежета чистоплотно.
Играть умеют, петь тоже - но слушать скучно все это.


Thanks:
(1) Ghostb,
Go to the top of the page
  Insert nick Quick quote
+Quote Post
post Mar 19 2019, 19:35:35
Post #7

Маньяк
**********
Group: Металариец
Posts: 1,433
Releases: 0
From: Харьков
On Forums: 9 years 10 months
Thanks: 533 time(s)
Ukraine


ЦИТАТА(Quacksha @ Mar 1 2019, 09:16:53) *
Местами камелод-камелодом

Да, слишком много Камелота. Вокалист старательно копирует интонации Каревика, но выходит не так убедительно (до эмоциональности Хана ему тем более далеко). Мелодии тоже далеко не такие цепляющие как на лучших работах американцев. Кроме того, материал хоть и качественный, но чересчур приторный (особенно клавишные напрягают).
Go to the top of the page
  Insert nick Quick quote
+Quote Post
post May 21 2019, 17:17:49
Post #8

21st Century Schizoid Man
**************
Group: Металариец
Posts: 5,925
Releases: 71
From: Moscow
On Forums: 11 years 3 months
Thanks: 4589 time(s)
Russian Federation


Несогласочка. Вокалист не столько копирует "Камелот", сколько Каревика, который копирует Хана в "Камелоте". Согласитесь, есть разница. Даже, может быть, копирует Каревика вообще, с учётом его работы в "Седьмом Чуде". Пока не определился. Вроде бы интересно, но слишком уж вторично.
Go to the top of the page
  Insert nick Quick quote
+Quote Post

Reply to this topicStart new topic
2 User(s) are reading this topic (2 Guests and 0 Anonymous Users)
0 Members:

 



- Lo-Fi Version Support form
Copyrights and abuse reports form
Time is now: 19th August 2019 - 20:23:05