Welcome Guest ( Log In | Register )

> Правила / Rules

Тут только для чтения лежат низкобитрейтные (<192kbps) релизы, для которых есть аналоги в высокобитрейтных форумах.

Here goes (and stand in read only mode) low bitrate releases (<192kbps) which were already replaced by high bitrate releases in corresponding forums.

> Ataraxie - Résignés (2019), Funeral Doom/Death Metal (D)
post Mar 3 2019, 16:04:51
Post #1

Мегаманьяк
***********
Group: Металариец
Posts: 1,636
Releases: 1406
From: Одесса
On Forums: 10 years 9 months
Thanks: 11370 time(s)
Ukraine


(IMG:http://metalarea.org/images/audiocovers/2019_Mar/acov_tid318509_thumb.jpg)

*Artist: Ataraxie
*Album: Résignés
*Year: 2019
*Genre: Funeral Doom/Death Metal
*Country: France (IMG:http://metalarea.org/forum/style_images/flags/France.png)
*Format: mp3@CBR128kbps (IMG:http://metalarea.org/images/bit_low.gif)
*Size: 80MB

Tracklist:
1. People Swarming, Evil Ruling 21:18
2. Résignés 19:17
3. Coronation of the Leeches 17:48
4. Les affres du trépas 25:02
******************************
Total playing time: 1:23:25



Extended info
На превью 5-трековая версия, которая выйдет на виниле...

Line - up:

Frédéric Patte-Brasseur - Guitars, Recording (Conviction, Funeralium, Stabwound, Wastes, Mourning Dawn (live), ex-Wormfood, ex-Despond)
Jonathan Théry - Bass, Vocals (Funeralium, Void Paradigm, ex-Hyadningar, ex-Bethlehem, ex-Despond, ex-Reign of Evil)
Pierre Sénécal - Drums (Chaos Dei, Mythrim, ex-Hyadningar)
Hugo Gaspar - Guitars (Forsaken Peddlers, Malemort, ex-Fatum Elisum, ex-Last Offender)
Julien Payan - Guitars (Sordide, Void Paradigm, Wastes, Telümehtår (live), ex-Hyadningar, ex-Yuck)

(IMG:https://f4.bcbits.com/img/0005182581_10.jpg)


Technical info
(IMG:http://metalarea.org/images/spectrogram/2019_Mar/48d86b1a23c9737cfe216119854f9032.png)
Input File: 03. Coronation Of The Leeches.MP3
Channels : 2
Sample Rate : 44100
Precision : 16-bit
Duration : 00:19:17.60 = 51050248 samples = 86820.1 CDDA sectors
File Size : 18.5M
Bit Rate : 128k
Sample Encoding: MPEG audio (layer I, II or III)
Comments :
Title=Coronation Of The Leeches
Artist=Ataraxie
Album=Résignés
Tracknumber=3
Year=2019
Genre=Funeral Doom / Death Metal



Register


Go to the top of the page
  Insert nick Quick quote
+Quote Post
 
Start new topic
Replies (1 - 3)
post Mar 4 2019, 10:51:40
Post #2

Правь статус, ####!111
**************
Group: Металариец
Posts: 38,572
Releases: 559
On Forums: 9 years 9 months
Thanks: 29382 time(s)
Russian Federation


Продолжительность (IMG:style_emoticons/default/headcrab.png)

Обложка (IMG:style_emoticons/default/27.gif)
Go to the top of the page
  Insert nick Quick quote
+Quote Post
post Mar 4 2019, 21:56:45
Post #3

Правь статус, ####!111
**************
Group: Металариец
Posts: 3,319
Releases: 0
From: Одесса
On Forums: 11 years 2 weeks
Thanks: 1494 time(s)
Unknown


Very good band. I'll wait for a decent bitrate.
Go to the top of the page
  Insert nick Quick quote
+Quote Post
post Mar 4 2019, 21:58:56
Post #4

Правь статус, ####!111
**************
Group: Металариец
Posts: 38,572
Releases: 559
On Forums: 9 years 9 months
Thanks: 29382 time(s)
Russian Federation


The official release date is the International Women Day so waiting won`t be that long (IMG:style_emoticons/default/smile1.gif)


Thanks:
Go to the top of the page
  Insert nick Quick quote
+Quote Post

Причина закрытия (Абигор 07-03-2019): Ataraxie - Résignés (2019)
Closed TopicStart new topic
2 User(s) are reading this topic (2 Guests and 0 Anonymous Users)
0 Members:

 



- Lo-Fi Version Support form
Copyrights and abuse reports form
Time is now: 23rd March 2019 - 04:07:02