Welcome Guest ( Log In | Register )

> Spectrum Mortis - Blasphemare Nomen Eius [ep] (2016), Black Metal
post Mar 4 2019, 13:54:47
Post #1

Мегаманьяк
***********
Group: Металариец
Posts: 1,868
Releases: 1480
From: Prešov
On Forums: 5 years 9 months
Thanks: 36630 time(s)
Slovakia


(IMG:http://metalarea.org/images/audiocovers/2019_Mar/acov_tid318548_thumb.jpg)

*Artist: Spectrum Mortis
*Album: Blasphemare Nomen Eius [ep]
*Year: 2016
*Genre: Black Metal
*Country: Spain (IMG:http://metalarea.org/forum/style_images/flags/Spain.png)
*Format: mp3@CBR320kbps
*Size: 63MB

Tracklist:
1. Bestiae Dominatu Exanimis 05:27
2. Orationibus Sanctorum Satanae 06:00
3. Hymnus Mortis et Cruentum Sacrificium 06:02
4. Cibum Comedentis Mortuorum et Princeps Regum 05:34
5. Mortem ac Tumultu in Tenebris 03:04
******************************
Total playing time: 26:07



Technical info
(IMG:http://metalarea.org/images/spectrogram/2019_Mar/a962209dd76bf2e76dc8bd05b8cbae7d.png)
Input File: 02. Orationibus Sanctorum Satanae.mp3
Channels : 2
Sample Rate : 48000
Precision : 16-bit
Duration : 00:06:00.05 = 17282448 samples ~ 27003.8 CDDA sectors
File Size : 14.5M
Bit Rate : 323k
Sample Encoding: MPEG audio (layer I, II or III)
Comments :
Title=Orationibus Sanctorum Satanae
Artist=Spectrum Mortis
Album=Blasphemare Nomen Eius
Tracknumber=02/05
Year=2016
Genre=Black Metal



Register


Go to the top of the page
  Insert nick Quick quote
+Quote Post
 
Start new topic
Replies (1 - 2)
post Mar 6 2019, 15:22:05
Post #2

Правь статус, ####!111
**************
Group: Металариец
Posts: 2,817
Releases: 8
From: Dnipro
On Forums: 11 years 6 months
Thanks: 891 time(s)
Ukraine


Облоги у них хороши. Натурализм!!!!
Go to the top of the page
  Insert nick Quick quote
+Quote Post
post Mar 6 2019, 15:39:38
Post #3

Правь статус, ####!111
**************
Group: Металариец
Posts: 44,941
Releases: 694
On Forums: 10 years 7 months
Thanks: 36464 time(s)
Russian Federation


ЦИТАТА(isvili @ Mar 6 2019, 18:22:05) *
Облоги у них хороши. Натурализм!!!!


Вроде и хорошо, да, но всё же для натурализма чего-то не хватает.
Go to the top of the page
  Insert nick Quick quote
+Quote Post

Reply to this topicStart new topic
1 User(s) are reading this topic (1 Guests and 0 Anonymous Users)
0 Members:

 



- Lo-Fi Version Support form
Copyrights and abuse reports form
Time is now: 26th January 2020 - 09:08:22