Welcome Guest ( Log In | Register )

> Undead - Beyond The Soul (2010), Old School Death Metal (D11)
post Mar 6 2019, 08:52:29
Post #1

Правь статус, ####!111
**************
Group: Металариец
Posts: 18,148
Releases: 12274
From: Г.Харьков
On Forums: 7 years 3 months
Thanks: 206851 time(s)
Unknown


(IMG:https://metalarea.org/images/audiocovers/2019_Mar/acov_tid318636_thumb.jpg)

*Artist: Undead
*Album: Beyond The Soul
*Year: 2010
*Genre: Old School Death Metal
*Country: Bolivia (IMG:https://metalarea.org/forum/style_images/flags/Bolivia.png)
*Format: mp3@CBR320kbps
*Size: 83MB

Tracklist:
1. Beyond the Soul
2. Enslaved by My Soul
3. Nightfall
4. Tears of Blood
5. Suffer
6. Turn to the Light
7. No Remorse
8. The Undead
9. Lost in the Abyss
10. Insane Religion
******************************
Total playing time: 36:31



Extended info
Mario Castro Bass
Marcelo Escobar L. Drums
Jaime Zambrana Lead Guitars
Boris Algarañaz Rhythm Guitars
Diego Machicao Vocals


Technical info
(IMG:https://metalarea.org/images/spectrogram/2019_Mar/c224da2858f75c05db6ceca488a50f7a.png)
Input File: 05 - Suffer.mp3
Channels : 2
Sample Rate : 44100
Precision : 16-bit
Duration : 00:03:19.64 = 8804036 samples = 14972.9 CDDA sectors
File Size : 8.04M
Bit Rate : 322k
Sample Encoding: MPEG audio (layer I, II or III)
Comments :
Title=Suffer
Artist=UNDEAD
Album=Beyond the Soul
Tracknumber=5
Year=2010
Genre=Metal
Discnumber=1



Register


Go to the top of the page
  Insert nick Quick quote
+Quote Post
 
Start new topic
Replies (1 - 1)
post Mar 6 2019, 10:25:26
Post #2

Сталин придёт за тобой...
***********
Group: Металариец
Posts: 1,645
Releases: 0
From: Беларусь, Минск
On Forums: 12 years 1 month
Thanks: 779 time(s)
Belarus


Рокенрольчик с дурацким вокалом, ерунда.


Thanks:
(1) Konungr,
Go to the top of the page
  Insert nick Quick quote
+Quote Post

Reply to this topicStart new topic
2 User(s) are reading this topic (2 Guests and 0 Anonymous Users)
0 Members:

 



- Lo-Fi Version Support form
Copyrights and abuse reports form
Time is now: 20th August 2019 - 21:11:50