Welcome Guest ( Log In | Register )

> Ad Mortem - Supreme Pestilence [demo] (2018), Black Metal
post Mar 6 2019, 18:35:50
Post #1

Мегаманьяк
***********
Group: Металариец
Posts: 1,725
Releases: 1365
From: Prešov
On Forums: 5 years 3 months
Thanks: 32867 time(s)
Slovakia


(IMG:http://metalarea.org/images/audiocovers/2019_Mar/acov_tid318669_thumb.jpg)

*Artist: Ad Mortem
*Album: Supreme Pestilence [demo]
*Year: 2018
*Genre: Black Metal
*Country: Germany (IMG:http://metalarea.org/forum/style_images/flags/Germany.png)
*Format: mp3@CBR320kbps
*Size: 53MB

Tracklist:
1. Invocation 04:51
2. Bastard Christ 04:07
3. Supreme Pestilence 04:57
4. Crown Of Hate 04:03
5. Totenkult 05:07
******************************
Total playing time: 23:05

Extended info
Worship Tapes - ωτ 188


Technical info
(IMG:http://metalarea.org/images/spectrogram/2019_Mar/7ddeed48fda465ca5d53540393b63015.png)
Input File: 04. Crown of Hate.mp3
Channels : 2
Sample Rate : 44100
Precision : 16-bit
Duration : 00:04:03.19 = 10724547 samples = 18239 CDDA sectors
File Size : 9.81M
Bit Rate : 323k
Sample Encoding: MPEG audio (layer I, II or III)
Comments :
Title=Crown of Hate
Artist=Ad Mortem
Album=Supreme Pestilence
Tracknumber=04/05
Year=2018
Genre=Black Metal



Register


Go to the top of the page
  Insert nick Quick quote
+Quote Post
 
Start new topic
Replies (1 - 1)
post Mar 6 2019, 20:25:12
Post #2

Morbid Angel
**************
Group: Металариец
Posts: 4,166
Releases: 0
From: Литва г.Клайпеда
On Forums: 12 years 4 months
Thanks: 1773 time(s)
Lithuania




Thanks:
Go to the top of the page
  Insert nick Quick quote
+Quote Post

Reply to this topicStart new topic
2 User(s) are reading this topic (2 Guests and 0 Anonymous Users)
0 Members:

 



- Lo-Fi Version Support form
Copyrights and abuse reports form
Time is now: 19th July 2019 - 08:46:52