Welcome Guest ( Log In | Register )

 
Reply to this topicStart new topic
> Vulcan - Strapped Into Reality [ep] (2010), Thrash Metal
post Mar 7 2019, 10:26:50
Post #1

Join my religion, or die
**************
Group: Металариец
Posts: 10,765
Releases: 1533
From: Питера
On Forums: 10 years 10 months
Thanks: 19958 time(s)
Russian Federation


(IMG:http://metalarea.org/images/audiocovers/2019_Mar/acov_tid318688_thumb.jpg)

*Artist: Vulcan
*Album: Strapped Into Reality [ep]
*Year: 2010
*Genre: Thrash Metal
*Country: United States (IMG:http://metalarea.org/forum/style_images/flags/United%20States.png)
*Format: mp3@CBR320kbps
*Size: 40MB

Tracklist:
01. Strapped into Reality 04:56
02. The Lines That Makes Us Weaker 03:28
03. March to Insanity 03:39
04. Stranger in Black 05:21
******************************
Total playing time: 17:24

(IMG:http://metalarea.org/images/youtube.png)

Technical info
(IMG:http://metalarea.org/images/spectrogram/2019_Mar/947df4ec26e1608a8f54f0598728b06f.png)
Input File: 03 March To Insanity.mp3
Channels : 2
Sample Rate : 44100
Precision : 16-bit
Duration : 00:03:38.61 = 9640569 samples = 16395.5 CDDA sectors
File Size : 8.86M
Bit Rate : 324k
Sample Encoding: MPEG audio (layer I, II or III)
Comments :
Title=March To Insanity
Artist=Vulcan
Album=Vulcan
Tracknumber=3
Year=2010



Register


Go to the top of the page
  Insert nick Quick quote
+Quote Post

Reply to this topicStart new topic
1 User(s) are reading this topic (1 Guests and 0 Anonymous Users)
0 Members:

 



- Lo-Fi Version Support form
Copyrights and abuse reports form
Time is now: 4th August 2020 - 04:24:30