Welcome Guest ( Log In | Register )

> И неформату есть предел.

Рэп/хип-хоп/шансон/поп удаляются. Для них есть свои порталы.

> Aindulmedir - The Lunar Lexicon (2019), Dark Ambient/Dungeon Synth
post Mar 13 2019, 13:44:45
Post #1

Правь статус, ####!111
**************
Group: Металариец
Posts: 48,637
Releases: 811
On Forums: 11 years 10 months
Thanks: 42819 time(s)
Russian Federation


(IMG:http://metalarea.org/images/audiocovers/2019_Mar/acov_tid318969_thumb.jpg)

*Artist: Aindulmedir
*Album: The Lunar Lexicon
*Year: 2019
*Genre: Dark Ambient/Dungeon Synth
*Country: Sweden (IMG:http://metalarea.org/forum/style_images/flags/Sweden.png)
*Format: mp3@CBR320kbps
*Size: 80MB

Tracklist:
01 - Wind-Bitten
02 - Book Of Towers
03 - The Librarian
04 - Winter And Slumber
05 - The Lunar Lexicon
06 - Snow Above Blue Fire
07 - Sleep-Form
******************************
Total playing time: 36:03

Technical info
(IMG:http://metalarea.org/images/spectrogram/2019_Mar/cd88c2d7a3705e4227d6e27a0e7501de.png)
Input File: 01 - Wind-Bitten.mp3
Channels : 2
Sample Rate : 44100
Precision : 16-bit
Duration : 00:05:01.46 = 13294430 samples = 22609.6 CDDA sectors
File Size : 12.1M
Bit Rate : 321k
Sample Encoding: MPEG audio (layer I, II or III)
Comments :
Title=Wind-Bitten
Artist=Aindulmedir
Album=The Lunar Lexicon
Tracknumber=01
Year=2019
Genre=Dark Ambient



Register


Go to the top of the page
  Insert nick Quick quote
+Quote Post
 
Start new topic
Replies (1 - 7)
post Mar 13 2019, 14:00:27
Post #2

Правь статус, ####!111
**************
Group: Металариец
Posts: 48,637
Releases: 811
On Forums: 11 years 10 months
Thanks: 42819 time(s)
Russian Federation


New magnificent project from the man behind Kammarheit.


Thanks:
(1) princeshr,
Go to the top of the page
  Insert nick Quick quote
+Quote Post
post Mar 14 2019, 08:46:48
Post #3

Dr.
**************
Group: Металариец
Posts: 5,331
Releases: 0
From: Primorye.ru
On Forums: 10 years 3 weeks
Thanks: 1107 time(s)
Russian Federation




Thanks:
(1) Brann,
Go to the top of the page
  Insert nick Quick quote
+Quote Post
post Mar 27 2019, 12:29:27
Post #4

While Waiting the Worms
**********
Group: Металариец
Posts: 1,276
Releases: 0
On Forums: 7 years 3 months
Thanks: 1886 time(s)
Unknown


Очень душевная вещь.
Хотелось бы ещё другие его проекты поиметь.
Именно такой эмбиент я люблю.


Go to the top of the page
  Insert nick Quick quote
+Quote Post
post Feb 19 2020, 19:17:01
Post #5

Литр
*
Group: Подсевший
Posts: 64
Releases: 0
On Forums: 12 years 3 months
Thanks: 53 time(s)
Russian Federation


Может кто перезалить?
Go to the top of the page
  Insert nick Quick quote
+Quote Post
post Feb 19 2020, 19:48:09
Post #6

Правь статус, ####!111
**************
Group: Металариец
Posts: 48,637
Releases: 811
On Forums: 11 years 10 months
Thanks: 42819 time(s)
Russian Federation


@320

Register


Go to the top of the page
  Insert nick Quick quote
+Quote Post
post May 30 2020, 17:57:06
Post #7

Group: Дух
Posts: 2
Releases: 0
On Forums: 7 years 7 months
Thanks: 0 time(s)
Russian Federation


Перезалейте, пожалуйста.

Спасибо!
Go to the top of the page
  Insert nick Quick quote
+Quote Post
post Feb 27 2021, 14:46:31
Post #8

Два Литра
**
Group: Завсегдатай
Posts: 182
Releases: 0
On Forums: 1 year 5 months
Thanks: 47 time(s)
Unknown


Кстати, он новый альбом выпустил.
Go to the top of the page
  Insert nick Quick quote
+Quote Post

Reply to this topicStart new topic
2 User(s) are reading this topic (2 Guests and 0 Anonymous Users)
0 Members:

 



- Lo-Fi Version Support form
Copyrights and abuse reports form
Time is now: 18th April 2021 - 00:36:00