Welcome Guest ( Log In | Register )

> Releases Upload / Добавление релизов

Добавить релиз тут / Click here to add release
Рекомендованные обменники / Recommended file shares

> Haeredium - Ascension (2019), Folk/Power Metal
post Mar 14 2019, 11:51:20
Post #1

Serial Uploader
Group Icon
Group: V.I.P
Posts: 34,298
Releases: 32531
From: Lithuania
On Forums: 10 years 9 months
Thanks: 371141 time(s)
Lithuania


(IMG:https://metalarea.org/images/audiocovers/2019_Mar/acov_tid319004_thumb.jpg)

*Artist: Haeredium
*Album: Ascension
*Year: 2019
*Genre: Folk/Power Metal
*Country: France (IMG:https://metalarea.org/forum/style_images/flags/France.png)
*Format: mp3@CBR320kbps
*Size: 125MB

Tracklist:
01. Wandering 01:33
02. Breathe 04:36
03. Images I Recall 04:19
04. Merchant of Lies 04:35
05. Fall 04:05
06. Euforio 03:25
07. From Silence 08:09
08. Winds Will Turn 04:32
09. Alpha Ursae Minoris 03:55
10. Joyride 03:24
11. Soif d'affronts et de victoires 03:35
12. Storyteller 08:28
******************************
Total playing time: 54:36




Technical info
(IMG:https://metalarea.org/images/spectrogram/2019_Mar/fefc747ae64ffe7d37f43b4411461a97.png)
Input File: 2 - Breathe.mp3
Channels : 2
Sample Rate : 44100
Precision : 16-bit
Duration : 00:04:36.05 = 12173849 samples = 20703.8 CDDA sectors
File Size : 11.1M
Bit Rate : 322k
Sample Encoding: MPEG audio (layer I, II or III)
Comments :
Title=Breathe
Artist=Haeredium
Album=Ascension
Tracknumber=2
Year=2019
Genre=Metal
Discnumber=1



Register


Go to the top of the page
  Insert nick Quick quote
+Quote Post
 
Start new topic
Replies (1 - 5)
post Mar 14 2019, 17:34:55
Post #2

Два Литра
**
Group: Завсегдатай
Posts: 129
Releases: 0
On Forums: 11 years 2 months
Thanks: 12 time(s)
Russian Federation


Поют по-английски. Уже хорошо.
Go to the top of the page
  Insert nick Quick quote
+Quote Post
post Mar 14 2019, 19:57:58
Post #3

Ёлд ХеллоВяйне
Group Icon
Group: V.I.P
Posts: 26,801
Releases: 131
From: Питер
On Forums: 12 years 4 months
Thanks: 14919 time(s)
Russian Federation




Go to the top of the page
  Insert nick Quick quote
+Quote Post
post Mar 16 2019, 22:04:07
Post #4

MDM-Thrash Metal
**************
Group: Металариец
Posts: 7,676
Releases: 432
From: Одесса
On Forums: 11 years 7 months
Thanks: 14386 time(s)
Ukraine


Register
Go to the top of the page
  Insert nick Quick quote
+Quote Post
post Mar 18 2019, 18:49:37
Post #5

Правь статус, ####!111
**************
Group: Металариец
Posts: 2,224
Releases: 1
From: Dnipro
On Forums: 10 years 8 months
Thanks: 566 time(s)
Ukraine


ЦИТАТА(kiol1 @ Mar 14 2019, 18:34:55) *
Поют по-английски. Уже хорошо.

Пьют по-английски. Уже хорошо. (IMG:style_emoticons/default/25.gif)
Go to the top of the page
  Insert nick Quick quote
+Quote Post
post Mar 18 2019, 19:31:12
Post #6

Мегадобряк
**************
Group: Металариец
Posts: 4,970
Releases: 1266
From: Харьков, Украина
On Forums: 12 years 5 months
Thanks: 9181 time(s)
Ukraine


Ох, разрадились вторым! (IMG:style_emoticons/default/pray.gif) Боже, какое волшебство они выпустили в 2014 (IMG:style_emoticons/default/pray.gif) (IMG:style_emoticons/default/pray.gif)
Go to the top of the page
  Insert nick Quick quote
+Quote Post

Reply to this topicStart new topic
2 User(s) are reading this topic (2 Guests and 0 Anonymous Users)
0 Members:

 



- Lo-Fi Version Support form
Copyrights and abuse reports form
Time is now: 20th March 2019 - 02:23:27