Welcome Guest ( Log In | Register )

> Final Cut - Jackhammer (2019), Thrash Metal
post Mar 14 2019, 12:57:58
Post #1

Правь статус, ####!111
**************
Group: Металариец
Posts: 16,980
Releases: 11522
From: Г.Харьков
On Forums: 7 years 1 week
Thanks: 192398 time(s)
Unknown


(IMG:https://metalarea.org/images/audiocovers/2019_Mar/acov_tid319019_thumb.jpg)

*Artist: Final Cut
*Album: Jackhammer
*Year: 2019
*Genre: Thrash Metal
*Country: Switzerland (IMG:https://metalarea.org/forum/style_images/flags/Switzerland.png)
*Format: mp3@CBR320kbps
*Size: 97MB

Tracklist:
1. Full Steam Ahead 05:08
2. Creature 05:39
3. Break the Barriers 04:20
4. Momentum 01:43
5. Generation Y 04:29
6. Prejudice 04:44
7. Regrets 04:06
8. Grin 03:08
9. Die or Die, Guranteed 05:52
10. Picasso's Thoughts 02:43
******************************
Total playing time: 41:52



Extended info
Christoph Krippel Bass
Christian Abt Guitars (lead)
Florian Brändle Drums
Lukas Bühler Guitars, Vocals (backing)
Giulio Serratore Vocals



Technical info
(IMG:https://metalarea.org/images/spectrogram/2019_Mar/dcd828da1c19204bd3bc4dba68394ac0.png)
Input File: 3 - Break the Barriers.mp3
Channels : 2
Sample Rate : 44100
Precision : 16-bit
Duration : 00:04:20.15 = 11472439 samples = 19511 CDDA sectors
File Size : 10.5M
Bit Rate : 324k
Sample Encoding: MPEG audio (layer I, II or III)
Comments :
Title=Break The Barriers
Artist=Final Cut
Album=Jackhammer
Tracknumber=3
Year=2019
Genre=Metal
Discnumber=1



Register


Go to the top of the page
  Insert nick Quick quote
+Quote Post
 
Start new topic
Replies (1 - 1)
post Mar 14 2019, 17:17:43
Post #2

Правь статус, ####!111
**************
Group: Металариец
Posts: 16,980
Releases: 11522
From: Г.Харьков
On Forums: 7 years 1 week
Thanks: 192398 time(s)
Unknown


Cloud Mail 320
Register


Go to the top of the page
  Insert nick Quick quote
+Quote Post

Reply to this topicStart new topic
1 User(s) are reading this topic (1 Guests and 0 Anonymous Users)
0 Members:

 



- Lo-Fi Version Support form
Copyrights and abuse reports form
Time is now: 19th May 2019 - 10:01:32