Welcome Guest ( Log In | Register )

> Releases Upload / Добавление релизов

Добавить релиз тут / Click here to add release
Рекомендованные обменники / Recommended file shares

 
Reply to this topicStart new topic
> Superlynx - New Moon (2019), Psychedelic Stoner/Doom Metal
post Mar 14 2019, 13:06:07
Post #1

Serial Uploader
Group Icon
Group: V.I.P
Posts: 34,298
Releases: 32531
From: Lithuania
On Forums: 10 years 9 months
Thanks: 371141 time(s)
Lithuania


(IMG:https://metalarea.org/images/audiocovers/2019_Mar/acov_tid319020_thumb.jpg)

*Artist: Superlynx
*Album: New Moon
*Year: 2019
*Genre: Psychedelic Stoner/Doom Metal
*Country: Norway (IMG:https://metalarea.org/forum/style_images/flags/Norway.png)
*Format: mp3@CBR320kbps
*Size: 108MB

Tracklist:
01. Hex 04:43
02. Breath 04:42
03. Becoming the Sea 04:39
04. New Moon 05:53
05. Indian Summer 03:42
06. These Children That Come at Us with Knives 04:33
07. Scarecrow 05:02
08. Cold Black Sea 05:05
09. The Groove 03:51
10. The Thickest Night 04:35
******************************
Total playing time: 46:45




Technical info
(IMG:https://metalarea.org/images/spectrogram/2019_Mar/f21874ef4f7f38f34ac3c072eeca56ef.png)
Input File: 2 - Breath.mp3
Channels : 2
Sample Rate : 44100
Precision : 16-bit
Duration : 00:04:42.53 = 12459529 samples = 21189.7 CDDA sectors
File Size : 11.4M
Bit Rate : 324k
Sample Encoding: MPEG audio (layer I, II or III)
Comments :
Title=Breath
Artist=Superlynx
Album=New Moon
Tracknumber=2
Year=2019
Genre=Metal
Discnumber=1



Register


Go to the top of the page
  Insert nick Quick quote
+Quote Post

Reply to this topicStart new topic
1 User(s) are reading this topic (1 Guests and 0 Anonymous Users)
0 Members:

 



- Lo-Fi Version Support form
Copyrights and abuse reports form
Time is now: 20th March 2019 - 02:34:21