Welcome Guest ( Log In | Register )

 
Reply to this topicStart new topic
> 11 Paranoias - Asterismal (2019), Sludge/Doom Metal (D5)
post Mar 14 2019, 13:14:18
Post #1

Serial Uploader
Group Icon
Group: V.I.P
Posts: 35,127
Releases: 33345
From: Lithuania
On Forums: 10 years 11 months
Thanks: 382005 time(s)
Lithuania


(IMG:https://metalarea.org/images/audiocovers/2019_Mar/acov_tid319021_thumb.jpg)

*Artist: 11 Paranoias
*Album: Asterismal
*Year: 2019
*Genre: Sludge/Doom Metal
*Country: United Kingdom (IMG:https://metalarea.org/forum/style_images/flags/United%20Kingdom.png)
*Format: mp3@CBR320kbps
*Size: 145MB

Tracklist:
01. Loss Portal 08:17
02. Bloodless Crush 03:21
03. Vitrified Galaxy 06:33
04. Prelude 02:07
05. Slow Moon 09:07
06. Quantitative Immortality 11:56
07. Chamber of Stars 06:14
08. Acoustic Mirror II 15:08
******************************
Total playing time: 1:02:43




Technical info
(IMG:https://metalarea.org/images/spectrogram/2019_Mar/b322ab988a95e5778fe5c05cfc5f71a5.png)
Input File: 2 - Bloodless Crush.mp3
Channels : 2
Sample Rate : 44100
Precision : 16-bit
Duration : 00:03:21.26 = 8875478 samples = 15094.4 CDDA sectors
File Size : 8.23M
Bit Rate : 327k
Sample Encoding: MPEG audio (layer I, II or III)
Comments :
Title=Bloodless Crush
Artist=11PARANOIAS
Album=Asterismal
Tracknumber=2
Year=2019
Genre=Rock/Indie Rock/Rock Pop
Discnumber=1



Register


Go to the top of the page
  Insert nick Quick quote
+Quote Post

Reply to this topicStart new topic
1 User(s) are reading this topic (1 Guests and 0 Anonymous Users)
0 Members:

 



- Lo-Fi Version Support form
Copyrights and abuse reports form
Time is now: 19th May 2019 - 09:38:51