Welcome Guest ( Log In | Register )

> Releases Upload / Добавление релизов

Добавить релиз тут / Click here to add release
Рекомендованные обменники / Recommended file shares

 
Reply to this topicStart new topic
> Faruln - The Black Hole Of The Soul [ep] (2019), Black Metal
post Mar 14 2019, 13:23:02
Post #1

Serial Uploader
Group Icon
Group: V.I.P
Posts: 34,298
Releases: 32531
From: Lithuania
On Forums: 10 years 9 months
Thanks: 371141 time(s)
Lithuania


(IMG:https://metalarea.org/images/audiocovers/2019_Mar/acov_tid319022_thumb.jpg)

*Artist: Faruln
*Album: The Black Hole Of The Soul [ep]
*Year: 2019
*Genre: Black Metal
*Country: Sweden (IMG:https://metalarea.org/forum/style_images/flags/Sweden.png)
*Format: mp3@CBR320kbps
*Size: 52MB

Tracklist:
01. The Black Hole of the Soul 05:56
02. Recreator of the Great Silence 06:04
03. The Sworn Enemy 07:00
04. Dissolution 03:46
******************************
Total playing time: 22:46



Technical info
(IMG:https://metalarea.org/images/spectrogram/2019_Mar/bea453e2e559ca0c5e681faacdc3dc7f.png)
Input File: 02. Recreator of the Great Silence.mp3
Channels : 2
Sample Rate : 44100
Precision : 16-bit
Duration : 00:06:04.59 = 16078331 samples = 27344.1 CDDA sectors
File Size : 14.7M
Bit Rate : 322k
Sample Encoding: MPEG audio (layer I, II or III)
Comments :
Title=Recreator of the Great Silence
Artist=Faruln
Album=The Black Hole of the Soul
Tracknumber=2
Year=2019
Discnumber=1



Register


Go to the top of the page
  Insert nick Quick quote
+Quote Post

Reply to this topicStart new topic
1 User(s) are reading this topic (1 Guests and 0 Anonymous Users)
0 Members:

 



- Lo-Fi Version Support form
Copyrights and abuse reports form
Time is now: 20th March 2019 - 02:43:44