Welcome Guest ( Log In | Register )

> Bremoi - Alteration & Mind [ep] (2019), Death Metal
post Mar 14 2019, 13:29:45
Post #1

Serial Uploader
Group Icon
Group: V.I.P
Posts: 35,127
Releases: 33345
From: Lithuania
On Forums: 10 years 11 months
Thanks: 382007 time(s)
Lithuania


(IMG:https://metalarea.org/images/audiocovers/2019_Mar/acov_tid319023_thumb.jpg)

*Artist: Bremoi
*Album: Alteration & Mind [ep]
*Year: 2019
*Genre: Death Metal
*Country: Brazil (IMG:https://metalarea.org/forum/style_images/flags/Brazil.png)
*Format: mp3@CBR320kbps
*Size: 39MB

Tracklist:
01. Psychosis
02. Isolated Minds
03. Savage
04. Never by Your Own
05. Borderline
06. Overwhelming (feat. João Müzel)
******************************
Total playing time: 16:58



Technical info
(IMG:https://metalarea.org/images/spectrogram/2019_Mar/8080b8324fe7845f9144eb4967538cc9.png)
Input File: 03. Savage.mp3
Channels : 2
Sample Rate : 44100
Precision : 16-bit
Duration : 00:02:14.10 = 5913678 samples = 10057.3 CDDA sectors
File Size : 5.42M
Bit Rate : 323k
Sample Encoding: MPEG audio (layer I, II or III)
Comments :
Title=Savage
Artist=BREMOI
Album=Alteration & Mind
Tracknumber=3
Discnumber=1



Register


Go to the top of the page
  Insert nick Quick quote
+Quote Post
 
Start new topic
Replies (1 - 1)
post Apr 1 2019, 03:38:50
Post #2

...Only Death Is Real...
**************
Group: Металариец
Posts: 2,745
Releases: 15
On Forums: 8 years 9 months
Thanks: 1714 time(s)
Antarctica


Go to the top of the page
  Insert nick Quick quote
+Quote Post

Reply to this topicStart new topic
1 User(s) are reading this topic (1 Guests and 0 Anonymous Users)
0 Members:

 



- Lo-Fi Version Support form
Copyrights and abuse reports form
Time is now: 19th May 2019 - 09:48:55