Welcome Guest ( Log In | Register )

 
Reply to this topicStart new topic
> Ambrotos - Cosmic Annulus [ep] (2019), Black Metal
post Mar 14 2019, 13:37:45
Post #1

Serial Uploader
Group Icon
Group: V.I.P
Posts: 35,127
Releases: 33345
From: Lithuania
On Forums: 10 years 11 months
Thanks: 382002 time(s)
Lithuania


(IMG:https://metalarea.org/images/audiocovers/2019_Mar/acov_tid319024_thumb.jpg)

*Artist: Ambrotos
*Album: Cosmic Annulus [ep]
*Year: 2019
*Genre: Black Metal
*Country: Greece (IMG:https://metalarea.org/forum/style_images/flags/Greece.png)
*Format: mp3@CBR320kbps
*Size: 45MB

Tracklist:
01. Oracle Veracities 07:02
02. Cosmic Annulus 05:44
03. Vortical 06:58
******************************
Total playing time: 19:44



(IMG:https://metalarea.org/images/youtube.png)

Technical info
(IMG:https://metalarea.org/images/spectrogram/2019_Mar/3826562fd8a3fb033c0638d7c498ba9d.png)
Input File: 03. Vortical.mp3
Channels : 2
Sample Rate : 44100
Precision : 16-bit
Duration : 00:06:53.86 = 18251094 samples = 31039.3 CDDA sectors
File Size : 16.7M
Bit Rate : 323k
Sample Encoding: MPEG audio (layer I, II or III)
Comments :
Title=Vortical
Artist=Ambrotos
Album=Cosmic Annulus
Tracknumber=3
Year=2019
Discnumber=1



Register


Go to the top of the page
  Insert nick Quick quote
+Quote Post

Reply to this topicStart new topic
1 User(s) are reading this topic (1 Guests and 0 Anonymous Users)
0 Members:

 



- Lo-Fi Version Support form
Copyrights and abuse reports form
Time is now: 19th May 2019 - 09:19:38