Welcome Guest ( Log In | Register )

> Releases Upload / Добавление релизов

Добавить релиз тут / Click here to add release
Рекомендованные обменники / Recommended file shares

 
Reply to this topicStart new topic
> Inside War - Conditions [ep] (2019), Old School Thrash/Death Metal (D4)
post Mar 14 2019, 13:47:48
Post #1

Правь статус, ####!111
**************
Group: Металариец
Posts: 16,302
Releases: 11074
From: Г.Харьков
On Forums: 6 years 10 months
Thanks: 184226 time(s)
Unknown


(IMG:https://metalarea.org/images/audiocovers/2019_Mar/acov_tid319025_thumb.jpg)

*Artist: Inside War
*Album: Conditions [ep]
*Year: 2019
*Genre: Old School Thrash/Death Metal
*Country: Brazil (IMG:https://metalarea.org/forum/style_images/flags/Brazil.png)
*Format: mp3@CBR320kbps
*Size: 33MB

Tracklist:
01. ... 02:46
02. We Don't Have to Accept What Destroys Us 03:04
03. Debtocracy 03:45
04. Merciless Abuse 02:35
05. Stomoxys (Praga Da Mosca) 03:03
******************************
Total playing time: 15:13




Extended info
Danilo Drums (2009-present)
Gabriel Dias Guitars (2009-present)
Gustavo Saiz Bass (2014-present)


Technical info
(IMG:https://metalarea.org/images/spectrogram/2019_Mar/2349929dd7b55310e6d7d37999ba374c.png)
Input File: 03. Debtocracy.mp3
Channels : 2
Sample Rate : 44100
Precision : 16-bit
Duration : 00:03:45.69 = 9952797 samples = 16926.5 CDDA sectors
File Size : 9.16M
Bit Rate : 325k
Sample Encoding: MPEG audio (layer I, II or III)
Comments :
Title=Debtocracy
Artist=Inside War
Album=Conditions
Tracknumber=3
Year=2019
Discnumber=1



Register


Go to the top of the page
  Insert nick Quick quote
+Quote Post

Reply to this topicStart new topic
1 User(s) are reading this topic (1 Guests and 0 Anonymous Users)
0 Members:

 



- Lo-Fi Version Support form
Copyrights and abuse reports form
Time is now: 20th March 2019 - 02:13:07