Welcome Guest ( Log In | Register )

> Releases Upload / Добавление релизов

Добавить релиз тут / Click here to add release
Рекомендованные обменники / Recommended file shares

> Sammontakojat - Syntymä [ep] (2019), Folk Metal
post Mar 14 2019, 13:51:07
Post #1

Serial Uploader
Group Icon
Group: V.I.P
Posts: 34,298
Releases: 32531
From: Lithuania
On Forums: 10 years 9 months
Thanks: 371140 time(s)
Lithuania


(IMG:http://metalarea.org/images/audiocovers/2019_Mar/acov_tid319043_thumb.jpg)

*Artist: Sammontakojat
*Album: Syntymä [ep]
*Year: 2019
*Genre: Folk Metal
*Country: Finland (IMG:https://metalarea.org/forum/style_images/flags/Finland.png)
*Format: mp3@CBR320kbps
*Size: 31MB

Tracklist:
01. Revontulien Maa
02. Syntymä
03. 1000 Virttä
******************************
Total playing time: 13:28



Technical info
(IMG:https://metalarea.org/images/spectrogram/2019_Mar/f85543362594cbc6b6331ea7b3d1b86a.png)
Input File: 02. Syntymä.mp3
Channels : 2
Sample Rate : 44100
Precision : 16-bit
Duration : 00:04:43.03 = 12481579 samples = 21227.2 CDDA sectors
File Size : 11.4M
Bit Rate : 322k
Sample Encoding: MPEG audio (layer I, II or III)
Comments :
Title=Syntymä
Artist=Sammontakojat
Album=Syntymä
Tracknumber=2
Year=2019
Discnumber=1



Register


Go to the top of the page
  Insert nick Quick quote
+Quote Post
 
Start new topic
Replies (1 - 1)
post Mar 14 2019, 20:02:09
Post #2

Ёлд ХеллоВяйне
Group Icon
Group: V.I.P
Posts: 26,801
Releases: 131
From: Питер
On Forums: 12 years 4 months
Thanks: 14919 time(s)
Russian Federation


Go to the top of the page
  Insert nick Quick quote
+Quote Post

Reply to this topicStart new topic
2 User(s) are reading this topic (2 Guests and 0 Anonymous Users)
0 Members:

 



- Lo-Fi Version Support form
Copyrights and abuse reports form
Time is now: 20th March 2019 - 01:48:18