Welcome Guest ( Log In | Register )

> Releases Upload / Добавление релизов

Добавить релиз тут / Click here to add release
Рекомендованные обменники / Recommended file shares

> Ty Morn - Istor (2019), Epic Heavy/Symphonic Metal
post Mar 14 2019, 14:02:02
Post #1

Serial Uploader
Group Icon
Group: V.I.P
Posts: 34,298
Releases: 32531
From: Lithuania
On Forums: 10 years 9 months
Thanks: 371141 time(s)
Lithuania


(IMG:https://metalarea.org/images/audiocovers/2019_Mar/acov_tid319027_thumb.jpg)

*Artist: Ty Morn
*Album: Istor
*Year: 2019
*Genre: Epic Heavy/Symphonic Metal
*Country: United Kingdom (IMG:https://metalarea.org/forum/style_images/flags/United%20Kingdom.png)
*Format: mp3@CBR320kbps
*Size: 114MB

Tracklist:
01. Reign of the Hunter
02. Hey Poseidon
03. Die Where We Stand
04. Fall on Your Sword
05. The Language of Beasts
06. Kings of Dishonour
07. Bring Forth the Night
08. Harvest of Souls
09. Hunt Leviathan
******************************
Total playing time: 49:37




Technical info
(IMG:https://metalarea.org/images/spectrogram/2019_Mar/f2ab94d19a63d8edebb2a3dc90fd32bb.png)
Input File: 2 - Hey Poseidon.mp3
Channels : 2
Sample Rate : 44100
Precision : 16-bit
Duration : 00:05:12.91 = 13799419 samples = 23468.4 CDDA sectors
File Size : 12.7M
Bit Rate : 324k
Sample Encoding: MPEG audio (layer I, II or III)
Comments :
Title=Hey Poseidon
Artist=Ty Morn
Album=Istor
Tracknumber=2
Year=2019
Genre=Metal
Discnumber=1



Register


Go to the top of the page
  Insert nick Quick quote
+Quote Post
 
Start new topic
Replies (1 - 2)
post Mar 15 2019, 20:10:01
Post #2

Шесть Литров
******
Group: Металариец
Posts: 504
Releases: 0
On Forums: 9 years 8 months
Thanks: 123 time(s)
Ukraine


Спасибо за раздачу, альбом достойный. В КОЛЕКЦИЮ!!!!


Thanks:
(1) Nattfodd,
Go to the top of the page
  Insert nick Quick quote
+Quote Post
post Mar 18 2019, 13:18:48
Post #3

Восемь Литров
********
Group: Металариец
Posts: 874
Releases: 0
From: Харьков
On Forums: 11 years 1 week
Thanks: 635 time(s)
Ukraine


Включил по приколу, в итоге послушал два раза по кругу весь альбом. Вроде ничего особенного, но и выключать не хочется. Очень ровный, уверенный хэви. Приятный вокал с очень легкой диркшнайдеровщиной. Мягкий звук и неплохие риффы.
Go to the top of the page
  Insert nick Quick quote
+Quote Post

Reply to this topicStart new topic
1 User(s) are reading this topic (1 Guests and 0 Anonymous Users)
0 Members:

 



- Lo-Fi Version Support form
Copyrights and abuse reports form
Time is now: 20th March 2019 - 02:21:48